<?xml version="1.0" standalone="no"?>
<!DOCTYPE svg PUBLIC "-//W3C//DTD SVG 1.1//EN" "http://www.w3.org/Graphics/SVG/1.1/DTD/svg11.dtd" >
<svg>
<metadata>
Created by FontForge 20090622 at Fri Oct  4 13:00:27 2019
 By deploy user
2005 Albert-Jan Pool published by FSI FontShop International GmbH
</metadata>
<defs>
<font id="DINPro-Medium" horiz-adv-x="325" >
  <font-face 
    font-family="DIN Pro Medium"
    font-weight="500"
    font-stretch="normal"
    units-per-em="1000"
    panose-1="2 11 6 4 2 1 1 2 1 2"
    ascent="800"
    descent="-200"
    x-height="507"
    cap-height="712"
    bbox="-200 -232 1170 1172"
    underline-thickness="70"
    underline-position="-67"
    unicode-range="U+000D-U+FEFF"
  />
<missing-glyph horiz-adv-x="568" 
d="M81 0v712h406v-712h-406zM151 70h266v572h-266v-572z" />
    <glyph glyph-name=".notdef" horiz-adv-x="568" 
d="M81 0v712h406v-712h-406zM151 70h266v572h-266v-572z" />
    <glyph glyph-name=".null" horiz-adv-x="0" 
 />
    <glyph glyph-name=".null" horiz-adv-x="0" 
 />
    <glyph glyph-name="nonmarkingreturn" horiz-adv-x="333" 
 />
    <glyph glyph-name="CR" unicode="&#xd;" horiz-adv-x="240" 
 />
    <glyph glyph-name="space" unicode=" " horiz-adv-x="240" 
 />
    <glyph glyph-name="exclam" unicode="!" horiz-adv-x="332" 
d="M245 712l-22 -500h-80l-22 500h124zM239 0h-112v109h112v-109z" />
    <glyph glyph-name="quotedbl" unicode="&#x22;" horiz-adv-x="444" 
d="M366 521h-101v191h101v-191zM179 521h-101v191h101v-191z" />
    <glyph glyph-name="numbersign" unicode="#" horiz-adv-x="672" 
d="M623 426h-92l-20 -124h79v-94h-94l-33 -208h-106l33 208h-137l-32 -208h-107l33 208h-79v94h94l20 124h-81v94h95l31 196h107l-31 -196h136l31 196h106l-31 -196h78v-94zM424 426h-136l-20 -124h137z" />
    <glyph glyph-name="dollar" unicode="$" horiz-adv-x="608" 
d="M556 203q0 -88 -59 -142.5t-157 -63.5v-111h-82v108q-141 6 -228 94l72 71q63 -63 165 -68v222l-26 3q-84 10 -134 57q-53 50 -53 136t54.5 142t149.5 65v90h82v-89q114 -7 191 -80l-69 -68q-51 48 -131 54v-216l34 -5q89 -14 133 -53q58 -51 58 -146zM449 200
q0 49 -28 74q-24 22 -83 30l-7 1v-212q56 5 87 33t31 74zM267 414v208q-51 -5 -79.5 -34.5t-28.5 -74.5q0 -42 27 -66q29 -26 81 -33z" />
    <glyph glyph-name="percent" unicode="%" horiz-adv-x="842" 
d="M784 130q0 -63 -40 -100t-100 -37t-100 37t-40 100v101q0 63 40 100t100 37t100 -37t40 -100v-101zM338 481q0 -63 -40 -99.5t-100 -36.5t-100 36.5t-40 99.5v101q0 63 40 100t100 37t100 -37t40 -100v-101zM629 712l-335 -712h-82l336 712h81zM707 133v95q0 72 -63 72
t-63 -72v-95q0 -72 63 -72t63 72zM261 484v95q0 72 -63 72t-63 -72v-95q0 -71 63 -71t63 71z" />
    <glyph glyph-name="ampersand" unicode="&#x26;" horiz-adv-x="730" 
d="M684 0h-131l-58 70q-87 -76 -197 -76t-170 57t-60 155q0 67 37.5 112.5t103.5 88.5q-22 25 -34.5 42.5t-26 48.5t-13.5 62q0 69 48 113.5t126 44.5q75 0 122 -45t47 -114q0 -74 -76 -126l-52 -36l150 -179q37 52 38 143h98q-5 -142 -71 -219zM434 142l-169 201
q-32 -22 -49 -37t-32 -41t-15 -57q0 -53 36.5 -87t92.5 -34q74 0 136 55zM380 558q0 30 -20 50.5t-51 20.5q-32 0 -51 -19.5t-19 -50.5q0 -34 55 -98l34 23q52 35 52 74z" />
    <glyph glyph-name="quotesingle" unicode="'" horiz-adv-x="257" 
d="M179 521h-101v191h101v-191z" />
    <glyph glyph-name="parenleft" unicode="(" horiz-adv-x="317" 
d="M260 -24l-70 -70q-62 62 -81 95q-23 41 -23 116v478q0 75 23 116q19 33 81 95l70 -70l-13 -12.5t-13.5 -13.5l-10 -11t-11 -14t-8.5 -15q-15 -28 -15 -81v-466q0 -53 15 -81q4 -8 8.5 -15t11 -14l10 -11t13.5 -13.5z" />
    <glyph glyph-name="parenright" unicode=")" horiz-adv-x="317" 
d="M232 117q0 -74 -24 -116l-11 -17t-10.5 -15t-13.5 -16l-13 -14.5t-16 -16.5l-16 -16l-70 70q42 42 55 66q15 26 15 81v466q0 55 -15 81q-13 24 -55 66l70 70q62 -62 80 -95q24 -41 24 -116v-478z" />
    <glyph glyph-name="asterisk" unicode="*" horiz-adv-x="485" 
d="M424 466l-37 -65l-111 69l4 -131h-75l4 131l-111 -69l-37 65l115 61l-115 62l37 65l111 -69l-4 130h75l-4 -130l111 69l37 -65l-115 -62z" />
    <glyph glyph-name="plus" unicode="+" horiz-adv-x="533" 
d="M482 225h-168v-168h-95v168h-168v95h168v167h95v-167h168v-95z" />
    <glyph glyph-name="comma" unicode="," horiz-adv-x="272" 
d="M194 -60l-116 -95v271h116v-176z" />
    <glyph glyph-name="hyphen" unicode="-" horiz-adv-x="426" 
d="M359 230h-292v95h292v-95z" />
    <glyph glyph-name="period" unicode="." horiz-adv-x="278" 
d="M200 0h-122v122h122v-122z" />
    <glyph glyph-name="slash" unicode="/" horiz-adv-x="380" 
d="M383 786l-285 -860h-98l285 860h98z" />
    <glyph glyph-name="zero" unicode="0" horiz-adv-x="533" 
d="M472 198q0 -93 -59 -148.5t-147 -55.5q-87 0 -146 55.5t-59 148.5v316q0 93 59 148.5t146 55.5q88 0 147 -55.5t59 -148.5v-316zM370 201v310q0 52 -28 84t-76 32q-47 0 -75 -32t-28 -84v-310q0 -52 28 -84t75 -32q48 0 76 32t28 84z" />
    <glyph glyph-name="one" unicode="1" horiz-adv-x="533" 
d="M355 0h-102v601l-139 -122v113l139 120h102v-712z" />
    <glyph glyph-name="two" unicode="2" horiz-adv-x="533" 
d="M477 0h-414v91l274 333q38 46 38 95t-27.5 78.5t-76.5 29.5q-45 0 -75 -27t-30 -83h-102q0 90 58 145.5t149 55.5q92 0 149 -54.5t57 -145.5q0 -44 -15.5 -76.5t-51.5 -77.5l-223 -273h290v-91z" />
    <glyph glyph-name="three" unicode="3" horiz-adv-x="533" 
d="M478 200q0 -99 -62 -153t-156 -54q-92 0 -153.5 50.5t-64.5 149.5h102q3 -54 35.5 -81t80.5 -27q51 0 83.5 31.5t32.5 86.5t-30 86t-89 31h-17v89h17q54 0 81 29t27 79q0 52 -30 81t-75 29q-46 0 -74.5 -27.5t-32.5 -74.5h-102q4 89 63 141.5t146 52.5q91 0 149 -55.5
t58 -143.5q0 -108 -89 -152q100 -44 100 -168z" />
    <glyph glyph-name="four" unicode="4" horiz-adv-x="533" 
d="M498 107h-76v-107h-99v107h-288v95l251 510h110l-250 -510h177v166h99v-166h76v-95z" />
    <glyph glyph-name="five" unicode="5" horiz-adv-x="533" 
d="M479 238q0 -65 -12 -109t-48 -80q-56 -56 -150 -56q-97 0 -152 55q-47 47 -54 136h102q13 -99 104 -99q46 0 74 28q34 34 34 125q0 149 -104 149q-81 0 -101 -64h-93v389h384v-91h-292v-188q39 41 118 41q82 0 128 -46q62 -62 62 -190z" />
    <glyph glyph-name="six" unicode="6" horiz-adv-x="533" 
d="M477 211q0 -98 -58.5 -157.5t-151.5 -59.5q-94 0 -152.5 57.5t-58.5 155.5q0 69 53 175l162 330h109l-153 -306q26 11 63 11q79 0 133 -57t54 -149zM375 209q0 54 -29.5 88.5t-79.5 34.5q-49 0 -78.5 -33t-29.5 -90t30 -90.5t78 -33.5q49 0 79 34t30 90z" />
    <glyph glyph-name="seven" unicode="7" horiz-adv-x="533" 
d="M487 621l-238 -621h-110l239 621h-217v-112h-98v203h424v-91z" />
    <glyph glyph-name="eight" unicode="8" horiz-adv-x="533" 
d="M486 201q0 -94 -63 -150.5t-157 -56.5t-156.5 56.5t-62.5 150.5q0 108 98 167q-86 52 -86 153q0 88 59 142.5t148 54.5t148.5 -54.5t59.5 -142.5q0 -101 -86 -153q98 -59 98 -167zM383 203q0 50 -34 84.5t-83 34.5t-83 -34.5t-34 -84.5t34 -84t83 -34t83 34t34 84z
M372 518q0 47 -30 78t-76 31t-75.5 -31t-29.5 -78t29.5 -77.5t75.5 -30.5t76 30.5t30 77.5z" />
    <glyph glyph-name="nine" unicode="9" horiz-adv-x="533" 
d="M477 505q0 -69 -53 -175l-162 -330h-109l153 306q-26 -11 -64 -11q-79 0 -132.5 57t-53.5 149q0 98 58.5 157.5t151.5 59.5q94 0 152.5 -57.5t58.5 -155.5zM375 503q0 56 -30 90t-79 34q-48 0 -78 -33.5t-30 -90.5q0 -54 29 -88.5t79 -34.5q49 0 79 33t30 90z" />
    <glyph glyph-name="colon" unicode=":" horiz-adv-x="303" 
d="M225 285h-121v122h121v-122zM225 0h-121v122h121v-122z" />
    <glyph glyph-name="semicolon" unicode=";" horiz-adv-x="303" 
d="M222 -60l-116 -95v271h116v-176zM225 285h-121v122h121v-122z" />
    <glyph glyph-name="less" unicode="&#x3c;" horiz-adv-x="533" 
d="M451 55l-369 177v91l369 177v-108l-245 -115l245 -114v-108z" />
    <glyph glyph-name="equal" unicode="=" horiz-adv-x="533" 
d="M482 327h-431v95h431v-95zM482 133h-431v95h431v-95z" />
    <glyph glyph-name="greater" unicode="&#x3e;" horiz-adv-x="533" 
d="M451 232l-369 -177v108l245 114l-245 115v108l369 -177v-91z" />
    <glyph glyph-name="question" unicode="?" horiz-adv-x="511" 
d="M470 527q0 -57 -48 -123l-77 -108q-18 -25 -18 -54v-30h-102v35q0 54 34 99l78 105q31 41 31 76q0 43 -27.5 71.5t-70.5 28.5q-45 0 -71 -29.5t-26 -71.5h-102q0 84 57 138t142 54q84 0 142 -52.5t58 -138.5zM332 0h-113v109h113v-109z" />
    <glyph glyph-name="at" unicode="@" horiz-adv-x="736" 
d="M672 0h-96v50q-48 -57 -127 -57q-81 0 -131 56q-27 31 -36 71.5t-9 113.5q0 71 8.5 112t34.5 72q47 57 132 57q78 0 126 -56v61q0 70 -37 108q-37 37 -106 37h-126q-68 0 -105 -37t-37 -108v-312q0 -42 10.5 -64.5t39.5 -45.5l-70 -70q-45 37 -62 73.5t-17 101.5v318
q0 115 59 175q59 59 172 59h146q112 0 171 -59q60 -60 60 -175v-481zM574 234q0 73 -22 114t-80 41t-79.5 -40.5t-21.5 -114.5t21.5 -114t79.5 -40t80 40.5t22 113.5z" />
    <glyph glyph-name="A" unicode="A" horiz-adv-x="625" 
d="M617 0h-115l-49 143h-281l-49 -143h-115l261 712h87zM423 235l-108 316l-111 -316h219z" />
    <glyph glyph-name="B" unicode="B" horiz-adv-x="663" 
d="M596 201q0 -96 -59 -148.5t-156 -52.5h-288v712h277q99 0 157 -52.5t58 -142.5q0 -54 -28.5 -94.5t-67.5 -56.5q46 -18 76.5 -60t30.5 -105zM488 206q0 48 -31 78t-86 30h-170v-217h170q55 0 86 30t31 79zM477 513q0 49 -31.5 75.5t-84.5 26.5h-160v-204h160
q53 0 84.5 26.5t31.5 75.5z" />
    <glyph glyph-name="C" unicode="C" horiz-adv-x="628" 
d="M577 213q-18 -104 -86.5 -161.5t-167.5 -57.5q-112 0 -184 72q-48 49 -60 106.5t-12 183.5t12 183.5t60 106.5q72 72 184 72q100 0 167.5 -57.5t86.5 -161.5h-110q-12 57 -49 90t-95 33q-64 0 -105 -44q-27 -28 -35 -71.5t-8 -150.5t8 -150.5t35 -71.5q41 -44 105 -44
q58 0 95.5 33t50.5 90h108z" />
    <glyph glyph-name="D" unicode="D" horiz-adv-x="666" 
d="M599 356q0 -104 -9.5 -163.5t-44.5 -102.5q-73 -90 -202 -90h-250v712h250q129 0 202 -90q35 -43 44.5 -102.5t9.5 -163.5zM491 356q0 91 -7 137.5t-31 73.5q-42 49 -122 49h-130v-520h130q80 0 122 49q24 27 31 73.5t7 137.5z" />
    <glyph glyph-name="E" unicode="E" horiz-adv-x="603" 
d="M548 0h-455v712h455v-97h-347v-208h296v-96h-296v-214h347v-97z" />
    <glyph glyph-name="F" unicode="F" horiz-adv-x="585" 
d="M548 615h-347v-217h296v-97h-296v-301h-108v712h455v-97z" />
    <glyph glyph-name="G" unicode="G" horiz-adv-x="649" 
d="M583 276q0 -70 -14.5 -116.5t-49.5 -84.5q-77 -81 -196 -81q-112 0 -184 72q-48 49 -60 106.5t-12 183.5t12 183.5t60 106.5q72 72 184 72q108 0 175.5 -62t82.5 -158h-108q-14 59 -52.5 91.5t-97.5 32.5q-64 0 -106 -44q-26 -28 -34 -71.5t-8 -150.5t8 -150.5t34 -71.5
q42 -44 106 -44q74 0 117 51q35 40 35 112v40h-152v92h260v-109z" />
    <glyph glyph-name="H" unicode="H" horiz-adv-x="691" 
d="M598 0h-108v311h-289v-311h-108v712h108v-304h289v304h108v-712z" />
    <glyph glyph-name="I" unicode="I" horiz-adv-x="294" 
d="M201 0h-108v712h108v-712z" />
    <glyph glyph-name="J" unicode="J" horiz-adv-x="506" 
d="M423 225q0 -107 -67.5 -169t-169.5 -62q-104 0 -173 69l72 71q22 -22 43.5 -32.5t57.5 -10.5q61 0 95 36.5t34 105.5v479h108v-487z" />
    <glyph glyph-name="K" unicode="K" horiz-adv-x="658" 
d="M648 0h-127l-200 351l-120 -144v-207h-108v712h108v-358l291 358h132l-231 -279z" />
    <glyph glyph-name="L" unicode="L" horiz-adv-x="574" 
d="M544 0h-451v712h108v-615h343v-97z" />
    <glyph glyph-name="M" unicode="M" horiz-adv-x="813" 
d="M721 0h-108v476l-164 -347h-80l-168 347v-476h-108v712h108l208 -443l204 443h108v-712z" />
    <glyph glyph-name="N" unicode="N" horiz-adv-x="722" 
d="M629 0h-99l-329 501v-501h-108v712h99l329 -500v500h108v-712z" />
    <glyph glyph-name="O" unicode="O" horiz-adv-x="646" 
d="M579 356q0 -127 -11.5 -184t-60.5 -106q-72 -72 -184 -72t-184 72q-49 49 -60.5 106t-11.5 184t11.5 184t60.5 106q72 72 184 72t184 -72q49 -49 60.5 -106t11.5 -184zM471 356q0 108 -8 151.5t-34 70.5q-42 44 -106 44t-106 -44q-26 -28 -34 -71.5t-8 -150.5t8 -150
t34 -71q43 -45 106 -45t106 45q26 27 34 70t8 151z" />
    <glyph glyph-name="P" unicode="P" horiz-adv-x="629" 
d="M591 496q0 -94 -62.5 -154.5t-165.5 -60.5h-162v-281h-108v712h270q103 0 165.5 -61t62.5 -155zM483 496q0 56 -34 87.5t-92 31.5h-156v-238h156q58 0 92 31.5t34 87.5z" />
    <glyph glyph-name="Q" unicode="Q" horiz-adv-x="646" 
d="M579 356q0 -111 -8 -164t-38 -96l70 -69l-60 -59l-71 70q-61 -44 -149 -44q-112 0 -184 72q-49 49 -60.5 106t-11.5 184t11.5 184t60.5 106q72 72 184 72t184 -72q49 -49 60.5 -106t11.5 -184zM471 356q0 108 -8 151t-34 71q-42 44 -106 44t-106 -44q-26 -28 -34 -71
t-8 -151t8 -150.5t34 -70.5q43 -45 106 -45q43 0 74 24l-76 75l60 60l69 -70q13 26 17 63.5t4 113.5z" />
    <glyph glyph-name="R" unicode="R" horiz-adv-x="655" 
d="M612 0h-126l-150 300h-135v-300h-108v712h276q100 0 160.5 -58t60.5 -150q0 -73 -39.5 -122.5t-102.5 -66.5zM482 503q0 52 -33 82t-88 30h-160v-223h160q55 0 88 29.5t33 81.5z" />
    <glyph glyph-name="S" unicode="S" horiz-adv-x="590" 
d="M538 203q0 -97 -71 -153t-185 -56q-82 0 -141.5 21.5t-110.5 72.5l71 71q69 -69 183 -69q70 0 108.5 28.5t38.5 81.5q0 50 -28 74q-26 23 -78 30l-84 12q-89 14 -134 57q-53 48 -53 137q0 94 64 151t174 57q71 0 123 -19t98 -62l-68 -68q-58 55 -157 55
q-62 0 -95.5 -30.5t-33.5 -80.5q0 -44 26 -66q27 -24 78 -32l85 -13q88 -14 132 -53q58 -53 58 -146z" />
    <glyph glyph-name="T" unicode="T" horiz-adv-x="560" 
d="M530 615h-196v-615h-108v615h-196v97h500v-97z" />
    <glyph glyph-name="U" unicode="U" horiz-adv-x="675" 
d="M593 240q0 -109 -73 -177.5t-183 -68.5t-182.5 68.5t-72.5 177.5v472h108v-467q0 -71 40 -112.5t107 -41.5t107.5 41.5t40.5 112.5v467h108v-472z" />
    <glyph glyph-name="V" unicode="V" horiz-adv-x="564" 
d="M559 712l-236 -712h-84l-234 712h112l164 -518l164 518h114z" />
    <glyph glyph-name="W" unicode="W" horiz-adv-x="871" 
d="M860 712l-186 -712h-94l-145 499l-144 -499h-94l-186 712h114l124 -509l143 509h87l143 -509l124 509h114z" />
    <glyph glyph-name="X" unicode="X" horiz-adv-x="578" 
d="M568 0h-125l-155 273l-154 -273h-124l220 365l-206 347h124l140 -255l141 255h124l-206 -347z" />
    <glyph glyph-name="Y" unicode="Y" horiz-adv-x="544" 
d="M539 712l-213 -419v-293h-108v293l-213 419h118l149 -313l149 313h118z" />
    <glyph glyph-name="Z" unicode="Z" horiz-adv-x="552" 
d="M504 0h-456v93l329 522h-315v97h442v-88l-331 -527h331v-97z" />
    <glyph glyph-name="bracketleft" unicode="[" horiz-adv-x="347" 
d="M304 -74h-218v860h218v-91h-116v-678h116v-91z" />
    <glyph glyph-name="backslash" unicode="\" horiz-adv-x="380" 
d="M380 -74h-98l-282 852h98z" />
    <glyph glyph-name="bracketright" unicode="]" horiz-adv-x="347" 
d="M261 -74h-218v90h118v680h-118v90h218v-860z" />
    <glyph glyph-name="asciicircum" unicode="^" horiz-adv-x="571" 
d="M503 401h-106l-112 207l-112 -207h-106l172 318h93z" />
    <glyph glyph-name="underscore" unicode="_" horiz-adv-x="571" 
d="M571 -172h-571v70h571v-70z" />
    <glyph glyph-name="grave" unicode="`" horiz-adv-x="500" 
d="M302 599h-77l-111 162h113z" />
    <glyph glyph-name="a" unicode="a" horiz-adv-x="530" 
d="M454 0h-100v46q-28 -28 -58.5 -40t-76.5 -12q-90 0 -136 46q-40 42 -40 109q0 66 45.5 106t130.5 40h133v36q0 49 -26 72t-85 23q-40 0 -64.5 -11.5t-46.5 -38.5l-66 63q35 41 75.5 57.5t105.5 16.5q209 0 209 -174v-339zM352 183v41h-117q-93 0 -93 -73q0 -72 96 -72
q61 0 92 29q22 21 22 75z" />
    <glyph glyph-name="b" unicode="b" horiz-adv-x="553" 
d="M496 254q0 -157 -57 -215q-45 -45 -124 -45q-84 0 -134 60v-54h-100v712h102v-256q48 57 133 57q78 0 123 -45q57 -58 57 -214zM394 254q0 38 -3.5 65t-14 52t-32.5 38t-55 13q-34 0 -56 -13t-32.5 -38t-14 -52t-3.5 -65t3.5 -65t14 -52.5t33 -38.5t55.5 -13t55 13
t32.5 38.5t14 52.5t3.5 65z" />
    <glyph glyph-name="c" unicode="c" horiz-adv-x="485" 
d="M448 66q-68 -72 -167 -72q-45 0 -84 14.5t-71.5 44t-51.5 81t-19 120.5t19 120.5t51.5 81t71.5 43.5t84 14q100 0 167 -71l-70 -68q-24 26 -45.5 37t-51.5 11q-60 0 -94 -45q-30 -38 -30 -123q0 -86 30 -124q34 -45 94 -45q30 0 51.5 11t45.5 37z" />
    <glyph glyph-name="d" unicode="d" horiz-adv-x="553" 
d="M472 0h-100v54q-50 -60 -134 -60q-79 0 -124 45q-57 58 -57 215q0 156 57 214q45 45 123 45q85 0 133 -57v256h102v-712zM370 254q0 38 -3.5 65t-14 52t-32.5 38t-55 13q-34 0 -56 -13t-32.5 -38t-14 -52t-3.5 -65t3.5 -65t14 -52.5t33 -38.5t55.5 -13t55 13t32.5 38.5
t14 52.5t3.5 65z" />
    <glyph glyph-name="e" unicode="e" horiz-adv-x="539" 
d="M485 224h-329q0 -67 33.5 -104.5t95.5 -37.5q41 0 68 12t55 40l65 -61q-41 -41 -83.5 -60t-106.5 -19q-104 0 -166 62t-62 198q0 122 58 190.5t157 68.5q101 0 158 -67t57 -179v-43zM384 295q-3 45 -14 69q-29 64 -100 64q-72 0 -101 -64q-12 -26 -13 -69h228z" />
    <glyph glyph-name="f" unicode="f" horiz-adv-x="328" 
d="M300 429h-101v-429h-102v429h-58v78h58v69q0 59 36 100t103 41h64v-87h-45q-56 0 -56 -59v-64h101v-78z" />
    <glyph glyph-name="g" unicode="g" horiz-adv-x="549" 
d="M468 3q0 -95 -58.5 -154.5t-158.5 -59.5q-58 0 -98.5 15t-80.5 52l65 65q48 -45 110 -45q61 0 90 36.5t29 92.5v65q-49 -58 -131 -58q-76 0 -121 45q-34 34 -45.5 83t-11.5 123t11.5 123t45.5 83q44 44 122 44q83 0 133 -60v54h99v-504zM366 263q0 35 -3.5 59.5t-13.5 49
t-31.5 37.5t-54.5 13t-55 -13t-32 -37.5t-13.5 -49.5t-3.5 -59t3.5 -59t13.5 -49.5t32 -37.5t55 -13t54.5 13t31.5 37.5t13.5 49t3.5 59.5z" />
    <glyph glyph-name="h" unicode="h" horiz-adv-x="568" 
d="M492 0h-102v309q0 57 -28 85t-74 28t-75.5 -28.5t-29.5 -84.5v-309h-102v712h102v-256q51 57 133 57q77 0 125 -46q51 -50 51 -143v-324z" />
    <glyph glyph-name="i" unicode="i" horiz-adv-x="264" 
d="M183 0h-102v507h102v-507zM186 607h-108v108h108v-108z" />
    <glyph glyph-name="j" unicode="j" horiz-adv-x="264" 
d="M183 -67q0 -61 -35 -100.5t-104 -39.5h-63v87h45q30 0 42.5 14.5t12.5 44.5v568h102v-574zM186 607h-108v108h108v-108z" />
    <glyph glyph-name="k" unicode="k" horiz-adv-x="548" 
d="M526 0h-126l-142 234l-75 -85v-149h-102v712h102v-439l197 234h124l-176 -199z" />
    <glyph glyph-name="l" unicode="l" horiz-adv-x="311" 
d="M280 0h-63q-69 0 -104 39.5t-35 100.5v572h102v-566q0 -30 12.5 -44.5t42.5 -14.5h45v-87z" />
    <glyph glyph-name="m" unicode="m" horiz-adv-x="877" 
d="M801 0h-102v309q0 57 -28.5 85t-73.5 28q-44 0 -74.5 -28t-30.5 -80v-314h-102v309q0 57 -28 85t-74 28t-75.5 -28.5t-29.5 -84.5v-309h-102v507h100v-51q52 57 135 57q96 0 144 -74q61 74 159 74q80 0 128 -46q54 -53 54 -143v-324z" />
    <glyph glyph-name="n" unicode="n" horiz-adv-x="568" 
d="M492 0h-102v309q0 57 -28 85t-74 28t-75.5 -28.5t-29.5 -84.5v-309h-102v507h100v-51q52 57 135 57q77 0 125 -46q51 -50 51 -143v-324z" />
    <glyph glyph-name="o" unicode="o" horiz-adv-x="537" 
d="M480 254q0 -138 -60 -200q-58 -60 -152 -60q-93 0 -151 60q-60 62 -60 200q0 69 13 116.5t47 82.5q58 60 151 60q94 0 152 -60q34 -35 47 -82.5t13 -116.5zM378 254q0 104 -35 139q-29 29 -75 29q-45 0 -74 -29q-35 -35 -35 -139t35 -139q30 -30 74 -30q45 0 75 30
q35 35 35 139z" />
    <glyph glyph-name="p" unicode="p" horiz-adv-x="553" 
d="M496 254q0 -157 -57 -215q-45 -45 -123 -45q-85 0 -133 58v-257h-102v712h100v-54q50 60 134 60q79 0 124 -45q57 -58 57 -214zM394 254q0 38 -3.5 65t-14 52t-32.5 38t-55 13q-34 0 -56 -13t-32.5 -38t-14 -52t-3.5 -65t3.5 -65t14 -52.5t33 -38.5t55.5 -13t55 13
t32.5 38.5t14 52.5t3.5 65z" />
    <glyph glyph-name="q" unicode="q" horiz-adv-x="553" 
d="M57 254q0 156 57 214q45 45 124 45q84 0 134 -60v54h100v-712h-102v257q-48 -58 -133 -58q-78 0 -123 45q-57 58 -57 215zM159 254q0 -38 3.5 -65t14 -52.5t32.5 -38.5t55 -13t55.5 13t33 38.5t14 52.5t3.5 65t-3.5 65t-14 52t-32.5 38t-56 13q-33 0 -55 -13t-32.5 -38
t-14 -52t-3.5 -65z" />
    <glyph glyph-name="r" unicode="r" horiz-adv-x="439" 
d="M437 465l-77 -77q-34 34 -76 34q-43 0 -72 -31.5t-29 -82.5v-308h-102v507h100v-55q20 27 56.5 44t78.5 17q73 0 121 -48z" />
    <glyph glyph-name="s" unicode="s" horiz-adv-x="499" 
d="M456 155q0 -77 -58.5 -119t-152.5 -42q-139 0 -213 73l67 67q52 -53 146 -53q50 0 80.5 17.5t30.5 52.5q0 53 -68 60l-81 7q-150 14 -150 140q0 73 54 114t137 41q123 0 188 -57l-64 -65q-44 37 -125 37q-45 0 -68.5 -17.5t-23.5 -47.5q0 -27 16.5 -40.5t53.5 -17.5
l71 -6q160 -14 160 -144z" />
    <glyph glyph-name="t" unicode="t" horiz-adv-x="342" 
d="M293 0h-61q-67 0 -103 41t-36 100v288h-58v78h58v145h102v-145h98v-78h-98v-283q0 -59 56 -59h42v-87z" />
    <glyph glyph-name="u" unicode="u" horiz-adv-x="568" 
d="M487 0h-100v51q-53 -57 -135 -57q-77 0 -125 46q-51 50 -51 143v324h102v-309q0 -56 28 -84.5t74 -28.5t75.5 28.5t29.5 84.5v309h102v-507z" />
    <glyph glyph-name="v" unicode="v" horiz-adv-x="471" 
d="M463 507l-186 -507h-83l-186 507h108l120 -357l119 357h108z" />
    <glyph glyph-name="w" unicode="w" horiz-adv-x="743" 
d="M735 507l-158 -507h-87l-119 354l-118 -354h-88l-157 507h108l98 -357l118 357h79l117 -357l98 357h109z" />
    <glyph glyph-name="x" unicode="x" horiz-adv-x="503" 
d="M481 0h-123l-106 173l-107 -173h-123l174 259l-167 248h123l100 -165l99 165h123l-166 -248z" />
    <glyph glyph-name="y" unicode="y" horiz-adv-x="468" 
d="M464 507l-224 -608q-14 -40 -37 -63q-37 -37 -104 -37h-41v92h26q32 0 47 11.5t26 42.5l28 79l-177 483h108l121 -357l118 357h109z" />
    <glyph glyph-name="z" unicode="z" horiz-adv-x="469" 
d="M421 0h-378v81l252 335h-238v91h364v-81l-254 -335h254v-91z" />
    <glyph glyph-name="braceleft" unicode="{" horiz-adv-x="407" 
d="M362 -74h-71q-73 0 -107 34q-36 36 -36 105v167q0 42 -18 60q-19 19 -48 19h-37v90h37q29 0 48 19q18 18 18 60v167q0 69 36 105q34 34 107 34h71v-91h-39q-45 0 -58 -14q-15 -15 -15 -64v-161q0 -44 -17.5 -65.5t-48.5 -34.5q31 -13 48.5 -34.5t17.5 -65.5v-161
q0 -49 15 -64q13 -14 58 -14h39v-91z" />
    <glyph glyph-name="bar" unicode="|" horiz-adv-x="338" 
d="M220 -74h-102v860h102v-860z" />
    <glyph glyph-name="braceright" unicode="}" horiz-adv-x="407" 
d="M362 311h-36q-30 0 -49 -19q-18 -18 -18 -60v-167q0 -69 -36 -105q-34 -34 -107 -34h-71v91h39q45 0 58 14q15 15 15 64v161q0 44 18 65.5t49 34.5q-31 13 -49 34.5t-18 65.5v161q0 49 -15 64q-13 14 -58 14h-39v91h71q73 0 107 -34q36 -36 36 -105v-167q0 -42 18 -60
q19 -19 49 -19h36v-90z" />
    <glyph glyph-name="asciitilde" unicode="~" horiz-adv-x="574" 
d="M531 280q-44 -44 -76 -61t-72 -17q-44 0 -112 33q-48 24 -79 24q-23 0 -40.5 -8.5t-44.5 -35.5l-64 64q44 44 75.5 61t71.5 17q43 0 111 -33q48 -24 80 -24q23 0 40.5 8.5t44.5 35.5z" />
    <glyph glyph-name="uni00A0" unicode="&#xa0;" horiz-adv-x="240" 
 />
    <glyph glyph-name="exclamdown" unicode="&#xa1;" horiz-adv-x="332" 
d="M211 -205h-124l22 500h80zM205 398h-112v109h112v-109z" />
    <glyph glyph-name="cent" unicode="&#xa2;" horiz-adv-x="498" 
d="M459 184q-60 -64 -141 -74v-110h-80v111q-83 14 -133 80t-50 175t50 175t133 80v91h80v-90q81 -10 141 -74l-68 -66q-37 41 -82 48v-328q45 7 82 48zM247 204v324q-34 -7 -58 -39q-32 -44 -32 -123q0 -80 31 -123q24 -32 59 -39z" />
    <glyph glyph-name="sterling" unicode="&#xa3;" horiz-adv-x="564" 
d="M516 0h-411v313h-62v78h62v96q0 107 68 169t170 62q104 0 173 -69l-72 -71q-22 22 -43.5 32.5t-57.5 10.5q-61 0 -95 -36.5t-34 -105.5v-88h129v-78h-129v-216h302v-97z" />
    <glyph glyph-name="currency" unicode="&#xa4;" horiz-adv-x="665" 
d="M597 81l-67 -67l-74 74q-55 -38 -124 -38t-124 38l-73 -74l-67 67l73 74q-38 55 -38 124t38 124l-73 73l67 67l73 -73q54 37 124 37t124 -37l74 73l67 -67l-74 -73q38 -55 38 -124t-38 -124zM468 279q0 56 -40 95.5t-96 39.5t-96 -39.5t-40 -95.5t40 -96t96 -40t96 40
t40 96z" />
    <glyph glyph-name="yen" unicode="&#xa5;" horiz-adv-x="544" 
d="M538 712l-146 -290h87v-78h-127l-26 -51v-52h153v-78h-153v-163h-108v163h-153v78h153v52l-26 51h-127v78h87l-147 290h118l150 -314l148 314h117z" />
    <glyph glyph-name="brokenbar" unicode="&#xa6;" horiz-adv-x="344" 
d="M220 436h-102v350h102v-350zM220 -74h-102v350h102v-350z" />
    <glyph glyph-name="section" unicode="&#xa7;" horiz-adv-x="543" 
d="M472 264q0 -54 -29 -95t-68 -61q88 -39 88 -141q0 -82 -55.5 -130t-135.5 -48t-135.5 43.5t-58.5 126.5h100q3 -37 27.5 -58t66.5 -21q43 0 67 22.5t24 61.5q0 64 -78 88l-70 21q-141 43 -141 186q0 54 29 95t68 61q-84 41 -84 134q0 72 50 120.5t136 48.5t136 -45.5
t52 -119.5h-98q-6 76 -90 76q-42 0 -65 -20t-23 -57q0 -58 75 -81l70 -21q142 -43 142 -186zM372 261q0 52 -29 80q-30 28 -70 28q-45 0 -71 -28q-28 -30 -28 -80q0 -49 28 -79q26 -28 71 -28q44 0 70 28q29 31 29 79z" />
    <glyph glyph-name="dieresis" unicode="&#xa8;" horiz-adv-x="500" 
d="M404 604h-92v108h92v-108zM188 604h-92v108h92v-108z" />
    <glyph glyph-name="copyright" unicode="&#xa9;" horiz-adv-x="862" 
d="M793 356q0 -150 -106 -256t-256 -106t-256 106t-106 256t106 256t256 106t256 -106t106 -256zM720 356q0 124 -84 209t-205 85t-205 -85t-84 -209t84 -209t205 -85t205 85t84 209zM568 208q-58 -52 -131 -52q-81 0 -130 54.5t-49 145.5t49 145.5t130 54.5q71 0 131 -52
l-46 -47q-40 35 -85 35q-55 0 -81.5 -37t-26.5 -99t26.5 -99t81.5 -37q45 0 85 35z" />
    <glyph glyph-name="ordfeminine" unicode="&#xaa;" horiz-adv-x="452" 
d="M379 307h-81v36q-40 -40 -106 -40q-72 0 -108 36q-32 32 -32 87q0 53 36 85t103 32h105v28q0 38 -20.5 56t-66.5 18q-33 0 -51 -8.5t-36 -30.5l-55 52q28 33 61 45.5t85 12.5q166 0 166 -139v-270zM296 453v32h-93q-70 0 -70 -57q0 -55 71 -55q53 0 75 22q17 16 17 58z
" />
    <glyph glyph-name="guillemotleft" unicode="&#xab;" horiz-adv-x="592" 
d="M267 42l-230 230l230 229v-123l-107 -106l107 -107v-123zM520 42l-230 230l230 229v-123l-108 -106l108 -107v-123z" />
    <glyph glyph-name="logicalnot" unicode="&#xac;" horiz-adv-x="533" 
d="M484 98h-95v141h-341v95h436v-236z" />
    <glyph glyph-name="uni00AD" unicode="&#xad;" horiz-adv-x="426" 
d="M359 230h-292v95h292v-95z" />
    <glyph glyph-name="registered" unicode="&#xae;" horiz-adv-x="862" 
d="M793 356q0 -150 -106 -256t-256 -106t-256 106t-106 256t106 256t256 106t256 -106t106 -256zM720 356q0 124 -84 209.5t-205 85.5q-122 0 -206 -85.5t-84 -209.5t84 -209.5t206 -85.5q121 0 205 85.5t84 209.5zM588 161h-81l-80 155h-50v-155h-72v391h147q55 0 90.5 -35
t35.5 -85q0 -39 -21.5 -66.5t-55.5 -39.5zM507 432q0 25 -18 42t-46 17h-66v-118h66q28 0 46 17t18 42z" />
    <glyph glyph-name="macron" unicode="&#xaf;" horiz-adv-x="500" 
d="M95 618v73h309v-73h-309z" />
    <glyph glyph-name="degree" unicode="&#xb0;" horiz-adv-x="471" 
d="M410 549q0 -72 -51.5 -123t-123.5 -51t-123 51t-51 123t51 123.5t123 51.5t123.5 -51.5t51.5 -123.5zM326 549q0 39 -26.5 66t-64.5 27t-64 -27t-26 -66t26 -65.5t64 -26.5t64.5 26.5t26.5 65.5z" />
    <glyph glyph-name="plusminus" unicode="&#xb1;" horiz-adv-x="533" 
d="M482 316h-168v-169h-95v169h-168v95h168v168h95v-168h168v-95zM482 0h-431v95h431v-95z" />
    <glyph glyph-name="twosuperior" unicode="&#xb2;" 
d="M297 285h-260v69l161 186q22 26 22 52q0 25 -14 40t-39 15q-53 0 -53 -55h-77q0 57 36.5 90.5t93.5 33.5t93.5 -33.5t36.5 -90.5q0 -28 -10.5 -48.5t-35.5 -49.5l-121 -140h167v-69z" />
    <glyph glyph-name="threesuperior" unicode="&#xb3;" 
d="M302 408q0 -61 -38.5 -94.5t-96.5 -33.5q-57 0 -96.5 31.5t-40.5 94.5h77q1 -28 18 -42.5t42 -14.5q26 0 42 16t16 45q0 28 -16 44t-45 16h-11v66h11q27 0 41.5 15.5t14.5 39.5q0 27 -15.5 41.5t-38.5 14.5t-38 -13.5t-16 -38.5h-76q1 56 38 88.5t92 32.5q57 0 93.5 -34
t36.5 -88q0 -63 -50 -89q56 -29 56 -97z" />
    <glyph glyph-name="acute" unicode="&#xb4;" horiz-adv-x="500" 
d="M386 761l-111 -162h-77l75 162h113z" />
    <glyph glyph-name="mu" unicode="&#xb5;" horiz-adv-x="569" 
d="M487 0h-100v51q-53 -57 -134 -57q-45 0 -75 25v-224h-102v712h102v-309q0 -56 28.5 -84.5t74.5 -28.5t75 28.5t29 84.5v309h102v-507z" />
    <glyph glyph-name="paragraph" unicode="&#xb6;" horiz-adv-x="637" 
d="M544 -205h-102v820h-108v-820h-102v522q-81 0 -137.5 58t-56.5 138q0 90 61.5 144.5t163.5 54.5h281v-917z" />
    <glyph glyph-name="periodcentered" unicode="&#xb7;" horiz-adv-x="278" 
d="M200 217h-122v122h122v-122z" />
    <glyph glyph-name="cedilla" unicode="&#xb8;" horiz-adv-x="500" 
d="M319 -64l-51 -147h-101l70 147h82z" />
    <glyph glyph-name="onesuperior" unicode="&#xb9;" 
d="M224 285h-77v341l-87 -76v87l87 75h77v-427z" />
    <glyph glyph-name="ordmasculine" unicode="&#xba;" horiz-adv-x="458" 
d="M398 510q0 -110 -48 -159q-46 -48 -121 -48q-74 0 -120 48q-48 49 -48 159q0 109 48 158q46 48 120 48q75 0 121 -48q48 -49 48 -158zM314 510q0 83 -26 109q-23 23 -59 23q-35 0 -58 -23q-27 -27 -27 -109q0 -83 27 -110q23 -23 58 -23q36 0 59 23q26 26 26 110z" />
    <glyph glyph-name="guillemotright" unicode="&#xbb;" horiz-adv-x="592" 
d="M556 272l-231 -230v123l107 107l-107 106v123zM303 272l-231 -230v123l108 107l-108 106v123z" />
    <glyph glyph-name="onequarter" unicode="&#xbc;" horiz-adv-x="847" 
d="M224 285h-77v341l-87 -76v87l87 75h77v-427zM632 712l-335 -712h-82l335 712h82zM828 61h-40v-61h-73v61h-174v71l146 295h84l-147 -295h91v83h73v-83h40v-71z" />
    <glyph glyph-name="onehalf" unicode="&#xbd;" horiz-adv-x="847" 
d="M224 285h-77v341l-87 -76v87l87 75h77v-427zM632 712l-335 -712h-82l335 712h82zM819 0h-260v69l161 186q22 26 22 52q0 25 -14 40t-39 15q-53 0 -53 -55h-77q0 57 36.5 90.5t93.5 33.5t93.5 -33.5t36.5 -90.5q0 -28 -10.5 -48.5t-35.5 -49.5l-121 -140h167v-69z" />
    <glyph glyph-name="threequarters" unicode="&#xbe;" horiz-adv-x="847" 
d="M302 409q0 -61 -38.5 -94.5t-96.5 -33.5q-57 0 -96.5 31.5t-40.5 94.5h77q1 -28 18 -42.5t42 -14.5q26 0 42 16t16 45q0 28 -16 44t-45 16h-11v66h11q27 0 41.5 15.5t14.5 39.5q0 27 -15.5 41.5t-38.5 14.5t-38 -13.5t-16 -38.5h-76q1 56 38 88.5t92 32.5q57 0 93.5 -34
t36.5 -88q0 -63 -50 -89q56 -29 56 -97zM632 712l-335 -712h-82l335 712h82zM828 61h-40v-61h-73v61h-174v71l146 295h84l-147 -295h91v83h73v-83h40v-71z" />
    <glyph glyph-name="questiondown" unicode="&#xbf;" horiz-adv-x="511" 
d="M440 -19q0 -84 -57 -138t-143 -54q-84 0 -141.5 53t-57.5 139q0 59 47 123l78 108q18 25 18 54v30h102v-36q0 -52 -35 -99l-77 -105q-31 -41 -31 -76q0 -43 27 -71t70 -28q45 0 71.5 29t26.5 71h102zM291 398h-112v109h112v-109z" />
    <glyph glyph-name="Agrave" unicode="&#xc0;" horiz-adv-x="625" 
d="M617 0h-115l-49 143h-281l-49 -143h-115l261 712h87zM423 235l-108 316l-111 -316h219zM361 781h-77l-111 162h113z" />
    <glyph glyph-name="Aacute" unicode="&#xc1;" horiz-adv-x="625" 
d="M617 0h-115l-49 143h-281l-49 -143h-115l261 712h87zM423 235l-108 316l-111 -316h219zM446 943l-111 -162h-77l75 162h113z" />
    <glyph glyph-name="Acircumflex" unicode="&#xc2;" horiz-adv-x="625" 
d="M617 0h-115l-49 143h-281l-49 -143h-115l261 712h87zM423 235l-108 316l-111 -316h219zM482 781h-85l-87 97l-87 -97h-85l129 161h86z" />
    <glyph glyph-name="Atilde" unicode="&#xc3;" horiz-adv-x="625" 
d="M617 0h-115l-49 143h-281l-49 -143h-115l261 712h87zM423 235l-108 316l-111 -316h219zM478 846q-55 -55 -104 -55q-35 0 -75 23q-33 19 -56 19q-28 0 -58 -30l-48 47q55 55 104 55q35 0 75 -24q32 -19 55 -19q28 0 59 31z" />
    <glyph glyph-name="Adieresis" unicode="&#xc4;" horiz-adv-x="625" 
d="M617 0h-115l-49 143h-281l-49 -143h-115l261 712h87zM423 235l-108 316l-111 -316h219zM466 786h-92v108h92v-108zM250 786h-92v108h92v-108z" />
    <glyph glyph-name="Aring" unicode="&#xc5;" horiz-adv-x="625" 
d="M617 0h-115l-49 143h-281l-49 -143h-115l261 712h87zM423 235l-108 316l-111 -316h219zM435 875q0 -52 -36.5 -88.5t-88.5 -36.5t-88.5 36.5t-36.5 88.5t36.5 88.5t88.5 36.5t88.5 -36.5t36.5 -88.5zM374 875q0 26 -19 44.5t-45 18.5t-45 -18.5t-19 -44.5t19 -44.5
t45 -18.5t45 18.5t19 44.5z" />
    <glyph glyph-name="AE" unicode="&#xc6;" horiz-adv-x="952" 
d="M897 0h-455v162h-235l-84 -162h-118l374 712h518v-97h-347v-209h296v-97h-296v-212h347v-97zM442 254v361l-188 -361h188z" />
    <glyph glyph-name="Ccedilla" unicode="&#xc7;" horiz-adv-x="628" 
d="M577 213q-18 -104 -86.5 -161.5t-167.5 -57.5q-112 0 -184 72q-48 49 -60 106.5t-12 183.5t12 183.5t60 106.5q72 72 184 72q100 0 167.5 -57.5t86.5 -161.5h-110q-12 57 -49 90t-95 33q-64 0 -105 -44q-27 -28 -35 -71.5t-8 -150.5t8 -150.5t35 -71.5q41 -44 105 -44
q58 0 95.5 33t50.5 90h108zM374 -64l-51 -147h-101l70 147h82z" />
    <glyph glyph-name="Egrave" unicode="&#xc8;" horiz-adv-x="603" 
d="M548 0h-455v712h455v-97h-347v-208h296v-96h-296v-214h347v-97zM363 781h-77l-111 162h113z" />
    <glyph glyph-name="Eacute" unicode="&#xc9;" horiz-adv-x="603" 
d="M548 0h-455v712h455v-97h-347v-208h296v-96h-296v-214h347v-97zM447 943l-111 -162h-77l75 162h113z" />
    <glyph glyph-name="Ecircumflex" unicode="&#xca;" horiz-adv-x="603" 
d="M548 0h-455v712h455v-97h-347v-208h296v-96h-296v-214h347v-97zM483 781h-85l-87 97l-87 -97h-85l129 161h86z" />
    <glyph glyph-name="Edieresis" unicode="&#xcb;" horiz-adv-x="603" 
d="M548 0h-455v712h455v-97h-347v-208h296v-96h-296v-214h347v-97zM465 786h-92v108h92v-108zM249 786h-92v108h92v-108z" />
    <glyph glyph-name="Igrave" unicode="&#xcc;" horiz-adv-x="294" 
d="M201 0h-108v712h108v-712zM202 781h-77l-111 162h113z" />
    <glyph glyph-name="Iacute" unicode="&#xcd;" horiz-adv-x="294" 
d="M201 0h-108v712h108v-712zM286 943l-111 -162h-77l75 162h113z" />
    <glyph glyph-name="Icircumflex" unicode="&#xce;" horiz-adv-x="294" 
d="M201 0h-108v712h108v-712zM320 781h-85l-87 97l-87 -97h-85l129 161h86z" />
    <glyph glyph-name="Idieresis" unicode="&#xcf;" horiz-adv-x="294" 
d="M201 0h-108v712h108v-712zM302 786h-92v108h92v-108zM86 786h-92v108h92v-108z" />
    <glyph glyph-name="Eth" unicode="&#xd0;" horiz-adv-x="684" 
d="M618 356q0 -104 -9.5 -163.5t-44.5 -102.5q-73 -90 -202 -90h-250v318h-74v83h74v311h250q129 0 202 -90q35 -43 44.5 -102.5t9.5 -163.5zM510 356q0 91 -7 137.5t-31 73.5q-42 49 -122 49h-130v-215h138v-83h-138v-222h130q80 0 122 49q24 27 31 73.5t7 137.5z" />
    <glyph glyph-name="Ntilde" unicode="&#xd1;" horiz-adv-x="722" 
d="M629 0h-99l-329 501v-501h-108v712h99l329 -500v500h108v-712zM530 846q-55 -55 -104 -55q-35 0 -75 23q-33 19 -56 19q-28 0 -58 -30l-48 47q55 55 104 55q35 0 75 -24q32 -19 55 -19q28 0 59 31z" />
    <glyph glyph-name="Ograve" unicode="&#xd2;" horiz-adv-x="646" 
d="M579 356q0 -127 -11.5 -184t-60.5 -106q-72 -72 -184 -72t-184 72q-49 49 -60.5 106t-11.5 184t11.5 184t60.5 106q72 72 184 72t184 -72q49 -49 60.5 -106t11.5 -184zM471 356q0 108 -8 151.5t-34 70.5q-42 44 -106 44t-106 -44q-26 -28 -34 -71.5t-8 -150.5t8 -150
t34 -71q43 -45 106 -45t106 45q26 27 34 70t8 151zM375 781h-77l-111 162h113z" />
    <glyph glyph-name="Oacute" unicode="&#xd3;" horiz-adv-x="646" 
d="M579 356q0 -127 -11.5 -184t-60.5 -106q-72 -72 -184 -72t-184 72q-49 49 -60.5 106t-11.5 184t11.5 184t60.5 106q72 72 184 72t184 -72q49 -49 60.5 -106t11.5 -184zM471 356q0 108 -8 151.5t-34 70.5q-42 44 -106 44t-106 -44q-26 -28 -34 -71.5t-8 -150.5t8 -150
t34 -71q43 -45 106 -45t106 45q26 27 34 70t8 151zM459 943l-111 -162h-77l75 162h113z" />
    <glyph glyph-name="Ocircumflex" unicode="&#xd4;" horiz-adv-x="646" 
d="M579 356q0 -127 -11.5 -184t-60.5 -106q-72 -72 -184 -72t-184 72q-49 49 -60.5 106t-11.5 184t11.5 184t60.5 106q72 72 184 72t184 -72q49 -49 60.5 -106t11.5 -184zM471 356q0 108 -8 151.5t-34 70.5q-42 44 -106 44t-106 -44q-26 -28 -34 -71.5t-8 -150.5t8 -150
t34 -71q43 -45 106 -45t106 45q26 27 34 70t8 151zM495 781h-85l-87 97l-87 -97h-85l129 161h86z" />
    <glyph glyph-name="Otilde" unicode="&#xd5;" horiz-adv-x="646" 
d="M579 356q0 -127 -11.5 -184t-60.5 -106q-72 -72 -184 -72t-184 72q-49 49 -60.5 106t-11.5 184t11.5 184t60.5 106q72 72 184 72t184 -72q49 -49 60.5 -106t11.5 -184zM471 356q0 108 -8 151.5t-34 70.5q-42 44 -106 44t-106 -44q-26 -28 -34 -71.5t-8 -150.5t8 -150
t34 -71q43 -45 106 -45t106 45q26 27 34 70t8 151zM492 846q-55 -55 -104 -55q-35 0 -75 23q-33 19 -56 19q-28 0 -58 -30l-48 47q55 55 104 55q35 0 75 -24q32 -19 55 -19q28 0 59 31z" />
    <glyph glyph-name="Odieresis" unicode="&#xd6;" horiz-adv-x="646" 
d="M579 356q0 -127 -11.5 -184t-60.5 -106q-72 -72 -184 -72t-184 72q-49 49 -60.5 106t-11.5 184t11.5 184t60.5 106q72 72 184 72t184 -72q49 -49 60.5 -106t11.5 -184zM471 356q0 108 -8 151.5t-34 70.5q-42 44 -106 44t-106 -44q-26 -28 -34 -71.5t-8 -150.5t8 -150
t34 -71q43 -45 106 -45t106 45q26 27 34 70t8 151zM477 786h-92v108h92v-108zM261 786h-92v108h92v-108z" />
    <glyph glyph-name="multiply" unicode="&#xd7;" horiz-adv-x="533" 
d="M476 132l-64 -63l-146 145l-145 -145l-64 63l146 146l-146 146l64 64l145 -146l146 146l64 -64l-146 -146z" />
    <glyph glyph-name="Oslash" unicode="&#xd8;" horiz-adv-x="646" 
d="M556 756l-52 -107q51 -50 63 -107t12 -186q0 -127 -11.5 -184t-60.5 -106q-72 -72 -184 -72q-68 0 -120 26l-30 -64h-82l51 107l-3 3q-48 48 -60 106t-12 184t12 183.5t60 106.5q72 72 184 72q68 0 120 -26l30 64h83zM175 356q0 -147 21 -190l207 433q-34 23 -80 23
q-64 0 -106 -44q-26 -28 -34 -71.5t-8 -150.5zM471 356q0 148 -20 190l-207 -433q34 -23 79 -23q64 0 106 45q26 28 34 70.5t8 150.5z" />
    <glyph glyph-name="Ugrave" unicode="&#xd9;" horiz-adv-x="675" 
d="M593 240q0 -109 -73 -177.5t-183 -68.5t-182.5 68.5t-72.5 177.5v472h108v-467q0 -71 40 -112.5t107 -41.5t107.5 41.5t40.5 112.5v467h108v-472zM390 781h-77l-111 162h113z" />
    <glyph glyph-name="Uacute" unicode="&#xda;" horiz-adv-x="675" 
d="M593 240q0 -109 -73 -177.5t-183 -68.5t-182.5 68.5t-72.5 177.5v472h108v-467q0 -71 40 -112.5t107 -41.5t107.5 41.5t40.5 112.5v467h108v-472zM474 943l-111 -162h-77l75 162h113z" />
    <glyph glyph-name="Ucircumflex" unicode="&#xdb;" horiz-adv-x="675" 
d="M593 240q0 -109 -73 -177.5t-183 -68.5t-182.5 68.5t-72.5 177.5v472h108v-467q0 -71 40 -112.5t107 -41.5t107.5 41.5t40.5 112.5v467h108v-472zM510 781h-85l-87 97l-87 -97h-85l129 161h86z" />
    <glyph glyph-name="Udieresis" unicode="&#xdc;" horiz-adv-x="675" 
d="M593 240q0 -109 -73 -177.5t-183 -68.5t-182.5 68.5t-72.5 177.5v472h108v-467q0 -71 40 -112.5t107 -41.5t107.5 41.5t40.5 112.5v467h108v-472zM491 786h-92v108h92v-108zM275 786h-92v108h92v-108z" />
    <glyph glyph-name="Yacute" unicode="&#xdd;" horiz-adv-x="544" 
d="M539 712l-213 -419v-293h-108v293l-213 419h118l149 -313l149 313h118zM408 943l-111 -162h-77l75 162h113z" />
    <glyph glyph-name="Thorn" unicode="&#xde;" horiz-adv-x="637" 
d="M591 359q0 -94 -62.5 -154.5t-165.5 -60.5h-162v-144h-108v712h108v-137h162q103 0 165.5 -61t62.5 -155zM482 359q0 56 -34.5 87.5t-91.5 31.5h-155v-237h155q57 0 91.5 31.5t34.5 86.5z" />
    <glyph glyph-name="germandbls" unicode="&#xdf;" horiz-adv-x="565" 
d="M501 152q0 -72 -41 -113q-42 -39 -114 -39h-53v87h32q32 0 52 17q21 18 21 57v156q0 32 -18 53q-16 19 -52 19h-35v81h31q33 0 53.5 19.5t20.5 55.5q0 38 -25 60q-25 24 -81 24q-108 0 -108 -113v-516h-103v522q0 97 57.5 147t156.5 50q92 0 148.5 -43t56.5 -128
q0 -77 -62 -116q33 -16 48 -42.5t15 -72.5v-165z" />
    <glyph glyph-name="agrave" unicode="&#xe0;" horiz-adv-x="530" 
d="M454 0h-100v46q-28 -28 -58.5 -40t-76.5 -12q-90 0 -136 46q-40 42 -40 109q0 66 45.5 106t130.5 40h133v36q0 49 -26 72t-85 23q-40 0 -64.5 -11.5t-46.5 -38.5l-66 63q35 41 75.5 57.5t105.5 16.5q209 0 209 -174v-339zM352 183v41h-117q-93 0 -93 -73q0 -72 96 -72
q61 0 92 29q22 21 22 75zM309 599h-77l-111 162h113z" />
    <glyph glyph-name="aacute" unicode="&#xe1;" horiz-adv-x="530" 
d="M454 0h-100v46q-28 -28 -58.5 -40t-76.5 -12q-90 0 -136 46q-40 42 -40 109q0 66 45.5 106t130.5 40h133v36q0 49 -26 72t-85 23q-40 0 -64.5 -11.5t-46.5 -38.5l-66 63q35 41 75.5 57.5t105.5 16.5q209 0 209 -174v-339zM352 183v41h-117q-93 0 -93 -73q0 -72 96 -72
q61 0 92 29q22 21 22 75zM393 761l-111 -162h-77l75 162h113z" />
    <glyph glyph-name="acircumflex" unicode="&#xe2;" horiz-adv-x="530" 
d="M454 0h-100v46q-28 -28 -58.5 -40t-76.5 -12q-90 0 -136 46q-40 42 -40 109q0 66 45.5 106t130.5 40h133v36q0 49 -26 72t-85 23q-40 0 -64.5 -11.5t-46.5 -38.5l-66 63q35 41 75.5 57.5t105.5 16.5q209 0 209 -174v-339zM352 183v41h-117q-93 0 -93 -73q0 -72 96 -72
q61 0 92 29q22 21 22 75zM429 599h-85l-87 97l-87 -97h-85l129 161h86z" />
    <glyph glyph-name="atilde" unicode="&#xe3;" horiz-adv-x="530" 
d="M454 0h-100v46q-28 -28 -58.5 -40t-76.5 -12q-90 0 -136 46q-40 42 -40 109q0 66 45.5 106t130.5 40h133v36q0 49 -26 72t-85 23q-40 0 -64.5 -11.5t-46.5 -38.5l-66 63q35 41 75.5 57.5t105.5 16.5q209 0 209 -174v-339zM352 183v41h-117q-93 0 -93 -73q0 -72 96 -72
q61 0 92 29q22 21 22 75zM425 664q-55 -55 -104 -55q-35 0 -75 23q-33 19 -56 19q-28 0 -58 -30l-48 47q55 55 104 55q34 0 75 -24q32 -19 55 -19q28 0 59 31z" />
    <glyph glyph-name="adieresis" unicode="&#xe4;" horiz-adv-x="530" 
d="M454 0h-100v46q-28 -28 -58.5 -40t-76.5 -12q-90 0 -136 46q-40 42 -40 109q0 66 45.5 106t130.5 40h133v36q0 49 -26 72t-85 23q-40 0 -64.5 -11.5t-46.5 -38.5l-66 63q35 41 75.5 57.5t105.5 16.5q209 0 209 -174v-339zM352 183v41h-117q-93 0 -93 -73q0 -72 96 -72
q61 0 92 29q22 21 22 75zM411 604h-92v108h92v-108zM195 604h-92v108h92v-108z" />
    <glyph glyph-name="aring" unicode="&#xe5;" horiz-adv-x="530" 
d="M454 0h-100v46q-28 -28 -58.5 -40t-76.5 -12q-90 0 -136 46q-40 42 -40 109q0 66 45.5 106t130.5 40h133v36q0 49 -26 72t-85 23q-40 0 -64.5 -11.5t-46.5 -38.5l-66 63q35 41 75.5 57.5t105.5 16.5q209 0 209 -174v-339zM352 183v41h-117q-93 0 -93 -73q0 -72 96 -72
q61 0 92 29q22 21 22 75zM382 701q0 -52 -36.5 -88.5t-88.5 -36.5t-88.5 36.5t-36.5 88.5t36.5 88.5t88.5 36.5t88.5 -36.5t36.5 -88.5zM321 701q0 26 -19 44.5t-45 18.5t-45 -18.5t-19 -44.5t19 -44.5t45 -18.5t45 18.5t19 44.5z" />
    <glyph glyph-name="ae" unicode="&#xe6;" horiz-adv-x="837" 
d="M782 224h-329q0 -67 33.5 -104.5t95.5 -37.5q41 0 68.5 12t54.5 40l65 -61q-40 -41 -83 -60t-107 -19q-121 0 -179 79q-38 -45 -79 -62t-103 -17q-90 0 -136 46q-40 42 -40 109q0 66 45.5 106t130.5 40h133v36q0 49 -26 72t-85 23q-40 0 -64.5 -11.5t-46.5 -38.5l-66 63
q35 41 75.5 57.5t105.5 16.5q124 0 172 -67q52 67 150 67q101 0 158 -66.5t57 -179.5v-43zM682 295q-3 45 -14 69q-29 64 -100 64q-72 0 -101 -64q-12 -26 -13 -69h228zM352 183v41h-117q-93 0 -93 -73q0 -72 96 -72q61 0 92 29q22 21 22 75z" />
    <glyph glyph-name="ccedilla" unicode="&#xe7;" horiz-adv-x="485" 
d="M448 66q-68 -72 -167 -72q-45 0 -84 14.5t-71.5 44t-51.5 81t-19 120.5t19 120.5t51.5 81t71.5 43.5t84 14q100 0 167 -71l-70 -68q-24 26 -45.5 37t-51.5 11q-60 0 -94 -45q-30 -38 -30 -123q0 -86 30 -124q34 -45 94 -45q30 0 51.5 11t45.5 37zM319 -64l-51 -147h-101
l70 147h82z" />
    <glyph glyph-name="egrave" unicode="&#xe8;" horiz-adv-x="539" 
d="M485 224h-329q0 -67 33.5 -104.5t95.5 -37.5q41 0 68 12t55 40l65 -61q-41 -41 -83.5 -60t-106.5 -19q-104 0 -166 62t-62 198q0 122 58 190.5t157 68.5q101 0 158 -67t57 -179v-43zM384 295q-3 45 -14 69q-29 64 -100 64q-72 0 -101 -64q-12 -26 -13 -69h228zM325 599
h-77l-111 162h113z" />
    <glyph glyph-name="eacute" unicode="&#xe9;" horiz-adv-x="539" 
d="M485 224h-329q0 -67 33.5 -104.5t95.5 -37.5q41 0 68 12t55 40l65 -61q-41 -41 -83.5 -60t-106.5 -19q-104 0 -166 62t-62 198q0 122 58 190.5t157 68.5q101 0 158 -67t57 -179v-43zM384 295q-3 45 -14 69q-29 64 -100 64q-72 0 -101 -64q-12 -26 -13 -69h228zM409 761
l-111 -162h-77l75 162h113z" />
    <glyph glyph-name="ecircumflex" unicode="&#xea;" horiz-adv-x="539" 
d="M485 224h-329q0 -67 33.5 -104.5t95.5 -37.5q41 0 68 12t55 40l65 -61q-41 -41 -83.5 -60t-106.5 -19q-104 0 -166 62t-62 198q0 122 58 190.5t157 68.5q101 0 158 -67t57 -179v-43zM384 295q-3 45 -14 69q-29 64 -100 64q-72 0 -101 -64q-12 -26 -13 -69h228zM444 599
h-85l-87 97l-87 -97h-85l129 161h86z" />
    <glyph glyph-name="edieresis" unicode="&#xeb;" horiz-adv-x="539" 
d="M485 224h-329q0 -67 33.5 -104.5t95.5 -37.5q41 0 68 12t55 40l65 -61q-41 -41 -83.5 -60t-106.5 -19q-104 0 -166 62t-62 198q0 122 58 190.5t157 68.5q101 0 158 -67t57 -179v-43zM384 295q-3 45 -14 69q-29 64 -100 64q-72 0 -101 -64q-12 -26 -13 -69h228zM426 604
h-92v108h92v-108zM210 604h-92v108h92v-108z" />
    <glyph glyph-name="igrave" unicode="&#xec;" horiz-adv-x="264" 
d="M183 0h-102v507h102v-507zM175 599h-77l-111 162h113z" />
    <glyph glyph-name="iacute" unicode="&#xed;" horiz-adv-x="264" 
d="M183 0h-102v507h102v-507zM277 761l-111 -162h-77l75 162h113z" />
    <glyph glyph-name="icircumflex" unicode="&#xee;" horiz-adv-x="264" 
d="M183 0h-102v507h102v-507zM307 599h-85l-87 97l-87 -97h-85l129 161h86z" />
    <glyph glyph-name="idieresis" unicode="&#xef;" horiz-adv-x="264" 
d="M183 0h-102v507h102v-507zM287 604h-92v108h92v-108zM71 604h-92v108h92v-108z" />
    <glyph glyph-name="eth" unicode="&#xf0;" horiz-adv-x="537" 
d="M476 249q0 -69 -12.5 -115t-46.5 -81q-56 -59 -149 -59q-92 0 -148 59q-34 35 -46.5 81t-12.5 115t12.5 115t46.5 81q39 40 104 51q16 3 34 3q20 0 42 -5l-45 81h-116v72h78l-39 70h108l39 -70h87v-72h-50l51 -94q38 -70 50.5 -116t12.5 -116zM374 249q0 101 -33 135
q-29 29 -73 29q-43 0 -72 -29q-33 -34 -33 -135t33 -135q29 -29 72 -29q44 0 73 29q33 34 33 135z" />
    <glyph glyph-name="ntilde" unicode="&#xf1;" horiz-adv-x="568" 
d="M492 0h-102v309q0 57 -28 85t-74 28t-75.5 -28.5t-29.5 -84.5v-309h-102v507h100v-51q52 57 135 57q77 0 125 -46q51 -50 51 -143v-324zM455 664q-55 -55 -104 -55q-35 0 -75 23q-33 19 -56 19q-28 0 -58 -30l-48 47q55 55 104 55q34 0 75 -24q32 -19 55 -19q28 0 59 31z
" />
    <glyph glyph-name="ograve" unicode="&#xf2;" horiz-adv-x="537" 
d="M480 254q0 -138 -60 -200q-58 -60 -152 -60q-93 0 -151 60q-60 62 -60 200q0 69 13 116.5t47 82.5q58 60 151 60q94 0 152 -60q34 -35 47 -82.5t13 -116.5zM378 254q0 104 -35 139q-29 29 -75 29q-45 0 -74 -29q-35 -35 -35 -139t35 -139q30 -30 74 -30q45 0 75 30
q35 35 35 139zM313 599h-77l-111 162h113z" />
    <glyph glyph-name="oacute" unicode="&#xf3;" horiz-adv-x="537" 
d="M480 254q0 -138 -60 -200q-58 -60 -152 -60q-93 0 -151 60q-60 62 -60 200q0 69 13 116.5t47 82.5q58 60 151 60q94 0 152 -60q34 -35 47 -82.5t13 -116.5zM378 254q0 104 -35 139q-29 29 -75 29q-45 0 -74 -29q-35 -35 -35 -139t35 -139q30 -30 74 -30q45 0 75 30
q35 35 35 139zM404 761l-111 -162h-77l75 162h113z" />
    <glyph glyph-name="ocircumflex" unicode="&#xf4;" horiz-adv-x="537" 
d="M480 254q0 -138 -60 -200q-58 -60 -152 -60q-93 0 -151 60q-60 62 -60 200q0 69 13 116.5t47 82.5q58 60 151 60q94 0 152 -60q34 -35 47 -82.5t13 -116.5zM378 254q0 104 -35 139q-29 29 -75 29q-45 0 -74 -29q-35 -35 -35 -139t35 -139q30 -30 74 -30q45 0 75 30
q35 35 35 139zM440 599h-85l-87 97l-87 -97h-85l129 161h86z" />
    <glyph glyph-name="otilde" unicode="&#xf5;" horiz-adv-x="537" 
d="M480 254q0 -138 -60 -200q-58 -60 -152 -60q-93 0 -151 60q-60 62 -60 200q0 69 13 116.5t47 82.5q58 60 151 60q94 0 152 -60q34 -35 47 -82.5t13 -116.5zM378 254q0 104 -35 139q-29 29 -75 29q-45 0 -74 -29q-35 -35 -35 -139t35 -139q30 -30 74 -30q45 0 75 30
q35 35 35 139zM436 664q-55 -55 -104 -55q-35 0 -75 23q-33 19 -56 19q-28 0 -58 -30l-48 47q55 55 104 55q35 0 75 -24q32 -19 55 -19q28 0 59 31z" />
    <glyph glyph-name="odieresis" unicode="&#xf6;" horiz-adv-x="537" 
d="M480 254q0 -138 -60 -200q-58 -60 -152 -60q-93 0 -151 60q-60 62 -60 200q0 69 13 116.5t47 82.5q58 60 151 60q94 0 152 -60q34 -35 47 -82.5t13 -116.5zM378 254q0 104 -35 139q-29 29 -75 29q-45 0 -74 -29q-35 -35 -35 -139t35 -139q30 -30 74 -30q45 0 75 30
q35 35 35 139zM422 604h-92v108h92v-108zM206 604h-92v108h92v-108z" />
    <glyph glyph-name="divide" unicode="&#xf7;" horiz-adv-x="533" 
d="M484 230h-436v95h436v-95zM321 33h-109v109h109v-109zM321 414h-109v109h109v-109z" />
    <glyph glyph-name="oslash" unicode="&#xf8;" horiz-adv-x="537" 
d="M480 254q0 -138 -60 -200q-58 -60 -152 -60q-57 0 -104 25l-37 -63h-69l58 99q-34 35 -46.5 82.5t-12.5 116.5t13 116.5t47 82.5q58 60 151 60q58 0 105 -25l37 63h69l-59 -98q34 -35 47 -82.5t13 -116.5zM378 254q0 74 -15 109l-154 -260q26 -18 59 -18q45 0 75 30
q35 35 35 139zM328 405q-26 17 -60 17q-45 0 -74 -29q-35 -35 -35 -139q0 -74 15 -109z" />
    <glyph glyph-name="ugrave" unicode="&#xf9;" horiz-adv-x="568" 
d="M487 0h-100v51q-53 -57 -135 -57q-77 0 -125 46q-51 50 -51 143v324h102v-309q0 -56 28 -84.5t74 -28.5t75.5 28.5t29.5 84.5v309h102v-507zM333 599h-77l-111 162h113z" />
    <glyph glyph-name="uacute" unicode="&#xfa;" horiz-adv-x="568" 
d="M487 0h-100v51q-53 -57 -135 -57q-77 0 -125 46q-51 50 -51 143v324h102v-309q0 -56 28 -84.5t74 -28.5t75.5 28.5t29.5 84.5v309h102v-507zM417 761l-111 -162h-77l75 162h113z" />
    <glyph glyph-name="ucircumflex" unicode="&#xfb;" horiz-adv-x="568" 
d="M487 0h-100v51q-53 -57 -135 -57q-77 0 -125 46q-51 50 -51 143v324h102v-309q0 -56 28 -84.5t74 -28.5t75.5 28.5t29.5 84.5v309h102v-507zM453 599h-85l-87 97l-87 -97h-85l129 161h86z" />
    <glyph glyph-name="udieresis" unicode="&#xfc;" horiz-adv-x="568" 
d="M487 0h-100v51q-53 -57 -135 -57q-77 0 -125 46q-51 50 -51 143v324h102v-309q0 -56 28 -84.5t74 -28.5t75.5 28.5t29.5 84.5v309h102v-507zM434 604h-92v108h92v-108zM218 604h-92v108h92v-108z" />
    <glyph glyph-name="yacute" unicode="&#xfd;" horiz-adv-x="468" 
d="M464 507l-224 -608q-14 -40 -37 -63q-37 -37 -104 -37h-41v92h26q32 0 47 11.5t26 42.5l28 79l-177 483h108l121 -357l118 357h109zM372 761l-111 -162h-77l75 162h113z" />
    <glyph glyph-name="thorn" unicode="&#xfe;" horiz-adv-x="554" 
d="M496 254q0 -157 -57 -215q-45 -45 -123 -45q-85 0 -133 58v-257h-102v917h102v-256q48 57 133 57q78 0 123 -45q57 -58 57 -214zM394 254q0 38 -3.5 65t-14 52t-32.5 38t-55 13q-34 0 -56 -13t-32.5 -38t-14 -52t-3.5 -65t3.5 -65t14 -52.5t33 -38.5t55.5 -13t55 13
t32.5 38.5t14 52.5t3.5 65z" />
    <glyph glyph-name="ydieresis" unicode="&#xff;" horiz-adv-x="468" 
d="M464 507l-224 -608q-14 -40 -37 -63q-37 -37 -104 -37h-41v92h26q32 0 47 11.5t26 42.5l28 79l-177 483h108l121 -357l118 357h109zM390 604h-92v108h92v-108zM174 604h-92v108h92v-108z" />
    <glyph glyph-name="Amacron" unicode="&#x100;" horiz-adv-x="625" 
d="M617 0h-115l-49 143h-281l-49 -143h-115l261 712h87zM423 235l-108 316l-111 -316h219zM157 795v73h309v-73h-309z" />
    <glyph glyph-name="amacron" unicode="&#x101;" horiz-adv-x="530" 
d="M454 0h-100v46q-28 -28 -58.5 -40t-76.5 -12q-90 0 -136 46q-40 42 -40 109q0 66 45.5 106t130.5 40h133v36q0 49 -26 72t-85 23q-40 0 -64.5 -11.5t-46.5 -38.5l-66 63q35 41 75.5 57.5t105.5 16.5q209 0 209 -174v-339zM352 183v41h-117q-93 0 -93 -73q0 -72 96 -72
q61 0 92 29q22 21 22 75zM109 618v73h309v-73h-309z" />
    <glyph glyph-name="Abreve" unicode="&#x102;" horiz-adv-x="625" 
d="M617 0h-115l-49 143h-281l-49 -143h-115l261 712h87zM423 235l-108 316l-111 -316h219zM480 937q-4 -73 -48 -109t-117 -36t-117 36t-48 109h72q4 -34 29.5 -52.5t63.5 -18.5t63.5 18.5t29.5 52.5h72z" />
    <glyph glyph-name="abreve" unicode="&#x103;" horiz-adv-x="530" 
d="M454 0h-100v46q-28 -28 -58.5 -40t-76.5 -12q-90 0 -136 46q-40 42 -40 109q0 66 45.5 106t130.5 40h133v36q0 49 -26 72t-85 23q-40 0 -64.5 -11.5t-46.5 -38.5l-66 63q35 41 75.5 57.5t105.5 16.5q209 0 209 -174v-339zM352 183v41h-117q-93 0 -93 -73q0 -72 96 -72
q61 0 92 29q22 21 22 75zM411 738q-4 -73 -47.5 -109t-116.5 -36q-74 0 -117.5 36t-47.5 109h72q4 -34 29 -52t64 -18q33 0 60.5 17.5t31.5 52.5h72z" />
    <glyph glyph-name="Aogonek" unicode="&#x104;" horiz-adv-x="625" 
d="M617 0h-115l-49 143h-281l-49 -143h-115l261 712h87zM423 235l-108 316l-111 -316h219zM575 -64l-51 -147h-101l70 147h82z" />
    <glyph glyph-name="aogonek" unicode="&#x105;" horiz-adv-x="530" 
d="M454 0h-100v46q-28 -28 -58.5 -40t-76.5 -12q-90 0 -136 46q-40 42 -40 109q0 66 45.5 106t130.5 40h133v36q0 49 -26 72t-85 23q-40 0 -64.5 -11.5t-46.5 -38.5l-66 63q35 41 75.5 57.5t105.5 16.5q209 0 209 -174v-339zM352 183v41h-117q-93 0 -93 -73q0 -72 96 -72
q61 0 92 29q22 21 22 75zM436 -64l-51 -147h-101l70 147h82z" />
    <glyph glyph-name="Cacute" unicode="&#x106;" horiz-adv-x="628" 
d="M577 213q-18 -104 -86.5 -161.5t-167.5 -57.5q-112 0 -184 72q-48 49 -60 106.5t-12 183.5t12 183.5t60 106.5q72 72 184 72q100 0 167.5 -57.5t86.5 -161.5h-110q-12 57 -49 90t-95 33q-64 0 -105 -44q-27 -28 -35 -71.5t-8 -150.5t8 -150.5t35 -71.5q41 -44 105 -44
q58 0 95.5 33t50.5 90h108zM450 943l-111 -162h-77l75 162h113z" />
    <glyph glyph-name="cacute" unicode="&#x107;" horiz-adv-x="485" 
d="M448 66q-68 -72 -167 -72q-45 0 -84 14.5t-71.5 44t-51.5 81t-19 120.5t19 120.5t51.5 81t71.5 43.5t84 14q100 0 167 -71l-70 -68q-24 26 -45.5 37t-51.5 11q-60 0 -94 -45q-30 -38 -30 -123q0 -86 30 -124q34 -45 94 -45q30 0 51.5 11t45.5 37zM401 761l-111 -162h-77
l75 162h113z" />
    <glyph glyph-name="Ccircumflex" unicode="&#x108;" horiz-adv-x="628" 
d="M577 213q-18 -104 -86.5 -161.5t-167.5 -57.5q-112 0 -184 72q-48 49 -60 106.5t-12 183.5t12 183.5t60 106.5q72 72 184 72q100 0 167.5 -57.5t86.5 -161.5h-110q-12 57 -49 90t-95 33q-64 0 -105 -44q-27 -28 -35 -71.5t-8 -150.5t8 -150.5t35 -71.5q41 -44 105 -44
q58 0 95.5 33t50.5 90h108zM495 781h-85l-87 97l-87 -97h-85l129 161h86z" />
    <glyph glyph-name="ccircumflex" unicode="&#x109;" horiz-adv-x="485" 
d="M448 66q-68 -72 -167 -72q-45 0 -84 14.5t-71.5 44t-51.5 81t-19 120.5t19 120.5t51.5 81t71.5 43.5t84 14q100 0 167 -71l-70 -68q-24 26 -45.5 37t-51.5 11q-60 0 -94 -45q-30 -38 -30 -123q0 -86 30 -124q34 -45 94 -45q30 0 51.5 11t45.5 37zM452 599h-85l-87 97
l-87 -97h-85l129 161h86z" />
    <glyph glyph-name="Cdotaccent" unicode="&#x10a;" horiz-adv-x="628" 
d="M577 213q-18 -104 -86.5 -161.5t-167.5 -57.5q-112 0 -184 72q-48 49 -60 106.5t-12 183.5t12 183.5t60 106.5q72 72 184 72q100 0 167.5 -57.5t86.5 -161.5h-110q-12 57 -49 90t-95 33q-64 0 -105 -44q-27 -28 -35 -71.5t-8 -150.5t8 -150.5t35 -71.5q41 -44 105 -44
q58 0 95.5 33t50.5 90h108zM272 793v97h97v-97h-97z" />
    <glyph glyph-name="cdotaccent" unicode="&#x10b;" horiz-adv-x="485" 
d="M448 66q-68 -72 -167 -72q-45 0 -84 14.5t-71.5 44t-51.5 81t-19 120.5t19 120.5t51.5 81t71.5 43.5t84 14q100 0 167 -71l-70 -68q-24 26 -45.5 37t-51.5 11q-60 0 -94 -45q-30 -38 -30 -123q0 -86 30 -124q34 -45 94 -45q30 0 51.5 11t45.5 37zM231 611v97h97v-97h-97z
" />
    <glyph glyph-name="Ccaron" unicode="&#x10c;" horiz-adv-x="628" 
d="M577 213q-18 -104 -86.5 -161.5t-167.5 -57.5q-112 0 -184 72q-48 49 -60 106.5t-12 183.5t12 183.5t60 106.5q72 72 184 72q100 0 167.5 -57.5t86.5 -161.5h-110q-12 57 -49 90t-95 33q-64 0 -105 -44q-27 -28 -35 -71.5t-8 -150.5t8 -150.5t35 -71.5q41 -44 105 -44
q58 0 95.5 33t50.5 90h108zM486 942l-129 -161h-86l-129 161h85l87 -97l87 97h85z" />
    <glyph glyph-name="ccaron" unicode="&#x10d;" horiz-adv-x="485" 
d="M448 66q-68 -72 -167 -72q-45 0 -84 14.5t-71.5 44t-51.5 81t-19 120.5t19 120.5t51.5 81t71.5 43.5t84 14q100 0 167 -71l-70 -68q-24 26 -45.5 37t-51.5 11q-60 0 -94 -45q-30 -38 -30 -123q0 -86 30 -124q34 -45 94 -45q30 0 51.5 11t45.5 37zM453 760l-129 -161h-86
l-129 161h85l87 -97l87 97h85z" />
    <glyph glyph-name="Dcaron" unicode="&#x10e;" horiz-adv-x="666" 
d="M599 356q0 -104 -9.5 -163.5t-44.5 -102.5q-73 -90 -202 -90h-250v712h250q129 0 202 -90q35 -43 44.5 -102.5t9.5 -163.5zM491 356q0 91 -7 137.5t-31 73.5q-42 49 -122 49h-130v-520h130q80 0 122 49q24 27 31 73.5t7 137.5zM505 942l-129 -161h-86l-129 161h85l87 -97
l87 97h85z" />
    <glyph glyph-name="dcaron" unicode="&#x10f;" horiz-adv-x="553" 
d="M472 0h-100v54q-50 -60 -134 -60q-79 0 -124 45q-57 58 -57 215q0 156 57 214q45 45 123 45q85 0 133 -57v256h102v-712zM370 254q0 38 -3.5 65t-14 52t-32.5 38t-55 13q-34 0 -56 -13t-32.5 -38t-14 -52t-3.5 -65t3.5 -65t14 -52.5t33 -38.5t55.5 -13t55 13t32.5 38.5
t14 52.5t3.5 65zM663 730l-56 -159h-75l37 159h94z" />
    <glyph glyph-name="Dcroat" unicode="&#x110;" horiz-adv-x="684" 
d="M618 356q0 -104 -9.5 -163.5t-44.5 -102.5q-73 -90 -202 -90h-250v318h-74v83h74v311h250q129 0 202 -90q35 -43 44.5 -102.5t9.5 -163.5zM510 356q0 91 -7 137.5t-31 73.5q-42 49 -122 49h-130v-215h138v-83h-138v-222h130q80 0 122 49q24 27 31 73.5t7 137.5z" />
    <glyph glyph-name="dcroat" unicode="&#x111;" horiz-adv-x="571" 
d="M472 0h-100v54q-50 -60 -134 -60q-79 0 -124 45q-57 58 -57 215q0 156 57 214q45 45 123 45q85 0 133 -57v113h-69v73h69v70h102v-70h59v-73h-59v-569zM370 254q0 38 -3.5 65t-14 52t-32.5 38t-55 13q-34 0 -56 -13t-32.5 -38t-14 -52t-3.5 -65t3.5 -65t14 -52.5
t33 -38.5t55.5 -13t55 13t32.5 38.5t14 52.5t3.5 65z" />
    <glyph glyph-name="Emacron" unicode="&#x112;" horiz-adv-x="603" 
d="M548 0h-455v712h455v-97h-347v-208h296v-96h-296v-214h347v-97zM154 795v73h309v-73h-309z" />
    <glyph glyph-name="emacron" unicode="&#x113;" horiz-adv-x="539" 
d="M485 224h-329q0 -67 33.5 -104.5t95.5 -37.5q41 0 68 12t55 40l65 -61q-41 -41 -83.5 -60t-106.5 -19q-104 0 -166 62t-62 198q0 122 58 190.5t157 68.5q101 0 158 -67t57 -179v-43zM384 295q-3 45 -14 69q-29 64 -100 64q-72 0 -101 -64q-12 -26 -13 -69h228zM114 618
v73h309v-73h-309z" />
    <glyph glyph-name="Ebreve" unicode="&#x114;" horiz-adv-x="603" 
d="M548 0h-455v712h455v-97h-347v-208h296v-96h-296v-214h347v-97zM475 937q-4 -73 -48 -109t-117 -36t-117 36t-48 109h72q4 -34 29.5 -52.5t63.5 -18.5t63.5 18.5t29.5 52.5h72z" />
    <glyph glyph-name="ebreve" unicode="&#x115;" horiz-adv-x="539" 
d="M485 224h-329q0 -67 33.5 -104.5t95.5 -37.5q41 0 68 12t55 40l65 -61q-41 -41 -83.5 -60t-106.5 -19q-104 0 -166 62t-62 198q0 122 58 190.5t157 68.5q101 0 158 -67t57 -179v-43zM384 295q-3 45 -14 69q-29 64 -100 64q-72 0 -101 -64q-12 -26 -13 -69h228zM437 738
q-4 -73 -47.5 -109t-116.5 -36q-74 0 -117.5 36t-47.5 109h72q4 -34 29 -52t64 -18q33 0 60.5 17.5t31.5 52.5h72z" />
    <glyph glyph-name="Edotaccent" unicode="&#x116;" horiz-adv-x="603" 
d="M548 0h-455v712h455v-97h-347v-208h296v-96h-296v-214h347v-97zM260 793v97h97v-97h-97z" />
    <glyph glyph-name="edotaccent" unicode="&#x117;" horiz-adv-x="539" 
d="M485 224h-329q0 -67 33.5 -104.5t95.5 -37.5q41 0 68 12t55 40l65 -61q-41 -41 -83.5 -60t-106.5 -19q-104 0 -166 62t-62 198q0 122 58 190.5t157 68.5q101 0 158 -67t57 -179v-43zM384 295q-3 45 -14 69q-29 64 -100 64q-72 0 -101 -64q-12 -26 -13 -69h228zM220 611
v97h97v-97h-97z" />
    <glyph glyph-name="Eogonek" unicode="&#x118;" horiz-adv-x="603" 
d="M548 0h-455v712h455v-97h-347v-208h296v-96h-296v-214h347v-97zM548 -64l-51 -147h-101l70 147h82z" />
    <glyph glyph-name="eogonek" unicode="&#x119;" horiz-adv-x="539" 
d="M485 224h-329q0 -67 33.5 -104.5t95.5 -37.5q41 0 68 12t55 40l65 -61q-41 -41 -83.5 -60t-106.5 -19q-104 0 -166 62t-62 198q0 122 58 190.5t157 68.5q101 0 158 -67t57 -179v-43zM384 295q-3 45 -14 69q-29 64 -100 64q-72 0 -101 -64q-12 -26 -13 -69h228zM389 -64
l-51 -147h-101l70 147h82z" />
    <glyph glyph-name="Ecaron" unicode="&#x11a;" horiz-adv-x="603" 
d="M548 0h-455v712h455v-97h-347v-208h296v-96h-296v-214h347v-97zM481 942l-129 -161h-86l-129 161h85l87 -97l87 97h85z" />
    <glyph glyph-name="ecaron" unicode="&#x11b;" horiz-adv-x="539" 
d="M485 224h-329q0 -67 33.5 -104.5t95.5 -37.5q41 0 68 12t55 40l65 -61q-41 -41 -83.5 -60t-106.5 -19q-104 0 -166 62t-62 198q0 122 58 190.5t157 68.5q101 0 158 -67t57 -179v-43zM384 295q-3 45 -14 69q-29 64 -100 64q-72 0 -101 -64q-12 -26 -13 -69h228zM441 760
l-129 -161h-86l-129 161h85l87 -97l87 97h85z" />
    <glyph glyph-name="Gcircumflex" unicode="&#x11c;" horiz-adv-x="649" 
d="M583 276q0 -70 -14.5 -116.5t-49.5 -84.5q-77 -81 -196 -81q-112 0 -184 72q-48 49 -60 106.5t-12 183.5t12 183.5t60 106.5q72 72 184 72q108 0 175.5 -62t82.5 -158h-108q-14 59 -52.5 91.5t-97.5 32.5q-64 0 -106 -44q-26 -28 -34 -71.5t-8 -150.5t8 -150.5t34 -71.5
q42 -44 106 -44q74 0 117 51q35 40 35 112v40h-152v92h260v-109zM495 781h-85l-87 97l-87 -97h-85l129 161h86z" />
    <glyph glyph-name="gcircumflex" unicode="&#x11d;" horiz-adv-x="549" 
d="M468 3q0 -95 -58.5 -154.5t-158.5 -59.5q-58 0 -98.5 15t-80.5 52l65 65q48 -45 110 -45q61 0 90 36.5t29 92.5v65q-49 -58 -131 -58q-76 0 -121 45q-34 34 -45.5 83t-11.5 123t11.5 123t45.5 83q44 44 122 44q83 0 133 -60v54h99v-504zM366 263q0 35 -3.5 59.5t-13.5 49
t-31.5 37.5t-54.5 13t-55 -13t-32 -37.5t-13.5 -49.5t-3.5 -59t3.5 -59t13.5 -49.5t32 -37.5t55 -13t54.5 13t31.5 37.5t13.5 49t3.5 59.5zM435 599h-85l-87 97l-87 -97h-85l129 161h86z" />
    <glyph glyph-name="Gbreve" unicode="&#x11e;" horiz-adv-x="649" 
d="M583 276q0 -70 -14.5 -116.5t-49.5 -84.5q-77 -81 -196 -81q-112 0 -184 72q-48 49 -60 106.5t-12 183.5t12 183.5t60 106.5q72 72 184 72q108 0 175.5 -62t82.5 -158h-108q-14 59 -52.5 91.5t-97.5 32.5q-64 0 -106 -44q-26 -28 -34 -71.5t-8 -150.5t8 -150.5t34 -71.5
q42 -44 106 -44q74 0 117 51q35 40 35 112v40h-152v92h260v-109zM488 937q-4 -73 -48 -109t-117 -36t-117 36t-48 109h72q4 -34 29.5 -52.5t63.5 -18.5t63.5 18.5t29.5 52.5h72z" />
    <glyph glyph-name="gbreve" unicode="&#x11f;" horiz-adv-x="549" 
d="M468 3q0 -95 -58.5 -154.5t-158.5 -59.5q-58 0 -98.5 15t-80.5 52l65 65q48 -45 110 -45q61 0 90 36.5t29 92.5v65q-49 -58 -131 -58q-76 0 -121 45q-34 34 -45.5 83t-11.5 123t11.5 123t45.5 83q44 44 122 44q83 0 133 -60v54h99v-504zM366 263q0 35 -3.5 59.5t-13.5 49
t-31.5 37.5t-54.5 13t-55 -13t-32 -37.5t-13.5 -49.5t-3.5 -59t3.5 -59t13.5 -49.5t32 -37.5t55 -13t54.5 13t31.5 37.5t13.5 49t3.5 59.5zM427 738q-4 -73 -47.5 -109t-116.5 -36q-74 0 -117.5 36t-47.5 109h72q4 -34 29 -52t64 -18q33 0 60.5 17.5t31.5 52.5h72z" />
    <glyph glyph-name="Gdotaccent" unicode="&#x120;" horiz-adv-x="649" 
d="M583 276q0 -70 -14.5 -116.5t-49.5 -84.5q-77 -81 -196 -81q-112 0 -184 72q-48 49 -60 106.5t-12 183.5t12 183.5t60 106.5q72 72 184 72q108 0 175.5 -62t82.5 -158h-108q-14 59 -52.5 91.5t-97.5 32.5q-64 0 -106 -44q-26 -28 -34 -71.5t-8 -150.5t8 -150.5t34 -71.5
q42 -44 106 -44q74 0 117 51q35 40 35 112v40h-152v92h260v-109zM273 793v97h97v-97h-97z" />
    <glyph glyph-name="gdotaccent" unicode="&#x121;" horiz-adv-x="549" 
d="M468 3q0 -95 -58.5 -154.5t-158.5 -59.5q-58 0 -98.5 15t-80.5 52l65 65q48 -45 110 -45q61 0 90 36.5t29 92.5v65q-49 -58 -131 -58q-76 0 -121 45q-34 34 -45.5 83t-11.5 123t11.5 123t45.5 83q44 44 122 44q83 0 133 -60v54h99v-504zM366 263q0 35 -3.5 59.5t-13.5 49
t-31.5 37.5t-54.5 13t-55 -13t-32 -37.5t-13.5 -49.5t-3.5 -59t3.5 -59t13.5 -49.5t32 -37.5t55 -13t54.5 13t31.5 37.5t13.5 49t3.5 59.5zM213 611v97h97v-97h-97z" />
    <glyph glyph-name="Gcommaaccent" unicode="&#x122;" horiz-adv-x="649" 
d="M583 276q0 -70 -14.5 -116.5t-49.5 -84.5q-77 -81 -196 -81q-112 0 -184 72q-48 49 -60 106.5t-12 183.5t12 183.5t60 106.5q72 72 184 72q108 0 175.5 -62t82.5 -158h-108q-14 59 -52.5 91.5t-97.5 32.5q-64 0 -106 -44q-26 -28 -34 -71.5t-8 -150.5t8 -150.5t34 -71.5
q42 -44 106 -44q74 0 117 51q35 40 35 112v40h-152v92h260v-109zM393 -64l-51 -147h-101l70 147h82z" />
    <glyph glyph-name="gcommaaccent" unicode="&#x123;" horiz-adv-x="549" 
d="M468 3q0 -95 -58.5 -154.5t-158.5 -59.5q-58 0 -98.5 15t-80.5 52l65 65q48 -45 110 -45q61 0 90 36.5t29 92.5v65q-49 -58 -131 -58q-76 0 -121 45q-34 34 -45.5 83t-11.5 123t11.5 123t45.5 83q44 44 122 44q83 0 133 -60v54h99v-504zM366 263q0 35 -3.5 59.5t-13.5 49
t-31.5 37.5t-54.5 13t-55 -13t-32 -37.5t-13.5 -49.5t-3.5 -59t3.5 -59t13.5 -49.5t32 -37.5t55 -13t54.5 13t31.5 37.5t13.5 49t3.5 59.5zM409 761l-111 -162h-77l75 162h113z" />
    <glyph glyph-name="Hcircumflex" unicode="&#x124;" horiz-adv-x="691" 
d="M598 0h-108v311h-289v-311h-108v712h108v-304h289v304h108v-712zM517 781h-85l-87 97l-87 -97h-85l129 161h86z" />
    <glyph glyph-name="hcircumflex" unicode="&#x125;" horiz-adv-x="568" 
d="M492 0h-102v309q0 57 -28 85t-74 28t-75.5 -28.5t-29.5 -84.5v-309h-102v712h102v-256q51 57 133 57q77 0 125 -46q51 -50 51 -143v-324zM305 780h-85l-87 97l-87 -97h-85l129 161h86z" />
    <glyph glyph-name="Hbar" unicode="&#x126;" horiz-adv-x="723" 
d="M685 511h-71v-511h-108v311h-289v-311h-108v511h-71v84h71v117h108v-117h289v117h108v-117h71v-84zM506 408v103h-289v-103h289z" />
    <glyph glyph-name="hbar" unicode="&#x127;" horiz-adv-x="582" 
d="M506 0h-102v309q0 57 -28 85t-74 28t-75.5 -28.5t-29.5 -84.5v-309h-102v569h-55v66h55v77h102v-77h103v-66h-103v-113q51 57 133 57q77 0 125 -46q51 -50 51 -143v-324z" />
    <glyph glyph-name="Itilde" unicode="&#x128;" horiz-adv-x="294" 
d="M201 0h-108v712h108v-712zM318 846q-55 -55 -104 -55q-35 0 -75 23q-33 19 -56 19q-28 0 -58 -30l-48 47q55 55 104 55q35 0 75 -24q32 -19 55 -19q28 0 59 31z" />
    <glyph glyph-name="itilde" unicode="&#x129;" horiz-adv-x="264" 
d="M183 0h-102v507h102v-507zM304 664q-55 -55 -104 -55q-35 0 -75 23q-33 19 -56 19q-28 0 -58 -30l-48 47q55 55 104 55q35 0 75 -24q32 -19 55 -19q28 0 59 31z" />
    <glyph glyph-name="Imacron" unicode="&#x12a;" horiz-adv-x="294" 
d="M201 0h-108v712h108v-712zM-7 795v73h309v-73h-309z" />
    <glyph glyph-name="imacron" unicode="&#x12b;" horiz-adv-x="264" 
d="M183 0h-102v507h102v-507zM-22 618v73h309v-73h-309z" />
    <glyph glyph-name="Ibreve" unicode="&#x12c;" horiz-adv-x="294" 
d="M201 0h-108v712h108v-712zM313 937q-4 -73 -48 -109t-117 -36t-117 36t-48 109h72q4 -34 29.5 -52.5t63.5 -18.5t63.5 18.5t29.5 52.5h72z" />
    <glyph glyph-name="ibreve" unicode="&#x12d;" horiz-adv-x="264" 
d="M183 0h-102v507h102v-507zM298 738q-4 -73 -47.5 -109t-116.5 -36q-74 0 -117.5 36t-47.5 109h72q4 -34 29 -52t64 -18q33 0 60.5 17.5t31.5 52.5h72z" />
    <glyph glyph-name="Iogonek" unicode="&#x12e;" horiz-adv-x="294" 
d="M201 0h-108v712h108v-712zM175 -64l-51 -147h-101l70 147h82z" />
    <glyph glyph-name="iogonek" unicode="&#x12f;" horiz-adv-x="264" 
d="M183 0h-102v507h102v-507zM186 607h-108v108h108v-108zM163 -64l-51 -147h-101l70 147h82z" />
    <glyph glyph-name="Idotaccent" unicode="&#x130;" horiz-adv-x="294" 
d="M201 0h-108v712h108v-712zM100 793v97h97v-97h-97z" />
    <glyph glyph-name="dotlessi" unicode="&#x131;" horiz-adv-x="264" 
d="M183 0h-102v507h102v-507z" />
    <glyph glyph-name="IJ" unicode="&#x132;" horiz-adv-x="800" 
d="M201 0h-108v712h108v-712zM717 225q0 -107 -67.5 -169t-169.5 -62q-104 0 -173 69l72 71q22 -22 43.5 -32.5t57.5 -10.5q61 0 95 36.5t34 105.5v479h108v-487z" />
    <glyph glyph-name="ij" unicode="&#x133;" horiz-adv-x="528" 
d="M183 0h-102v507h102v-507zM186 607h-108v108h108v-108zM447 -67q0 -61 -35 -100.5t-104 -39.5h-63v87h45q30 0 42.5 14.5t12.5 44.5v568h102v-574zM450 607h-108v108h108v-108z" />
    <glyph glyph-name="Jcircumflex" unicode="&#x134;" horiz-adv-x="506" 
d="M423 225q0 -107 -67.5 -169t-169.5 -62q-104 0 -173 69l72 71q22 -22 43.5 -32.5t57.5 -10.5q61 0 95 36.5t34 105.5v479h108v-487zM540 781h-85l-87 97l-87 -97h-85l129 161h86z" />
    <glyph glyph-name="jcircumflex" unicode="&#x135;" horiz-adv-x="264" 
d="M183 -67q0 -61 -35 -100.5t-104 -39.5h-63v87h45q30 0 42.5 14.5t12.5 44.5v568h102v-574zM304 599h-85l-87 97l-87 -97h-85l129 161h86z" />
    <glyph glyph-name="Kcommaaccent" unicode="&#x136;" horiz-adv-x="658" 
d="M648 0h-127l-200 351l-120 -144v-207h-108v712h108v-358l291 358h132l-231 -279zM400 -64l-51 -147h-101l70 147h82z" />
    <glyph glyph-name="kcommaaccent" unicode="&#x137;" horiz-adv-x="548" 
d="M526 0h-126l-142 234l-75 -85v-149h-102v712h102v-439l197 234h124l-176 -199zM344 -64l-51 -147h-101l70 147h82z" />
    <glyph glyph-name="kgreenlandic" unicode="&#x138;" horiz-adv-x="548" 
d="M526 0h-126l-142 234l-75 -85v-149h-102v507h102v-234l197 234h124l-176 -199z" />
    <glyph glyph-name="Lacute" unicode="&#x139;" horiz-adv-x="574" 
d="M544 0h-451v712h108v-615h343v-97zM286 943l-111 -162h-77l75 162h113z" />
    <glyph glyph-name="lacute" unicode="&#x13a;" horiz-adv-x="311" 
d="M280 0h-63q-69 0 -104 39.5t-35 100.5v572h102v-566q0 -30 12.5 -44.5t42.5 -14.5h45v-87zM274 943l-111 -162h-77l75 162h113z" />
    <glyph glyph-name="Lcommaaccent" unicode="&#x13b;" horiz-adv-x="574" 
d="M544 0h-451v712h108v-615h343v-97zM356 -64l-51 -147h-101l70 147h82z" />
    <glyph glyph-name="lcommaaccent" unicode="&#x13c;" horiz-adv-x="311" 
d="M280 0h-63q-69 0 -104 39.5t-35 100.5v572h102v-566q0 -30 12.5 -44.5t42.5 -14.5h45v-87zM226 -64l-51 -147h-101l70 147h82z" />
    <glyph glyph-name="Lcaron" unicode="&#x13d;" horiz-adv-x="574" 
d="M544 0h-451v712h108v-615h343v-97zM437 712l-56 -159h-75l37 159h94z" />
    <glyph glyph-name="lcaron" unicode="&#x13e;" horiz-adv-x="311" 
d="M280 0h-63q-69 0 -104 39.5t-35 100.5v572h102v-566q0 -30 12.5 -44.5t42.5 -14.5h45v-87zM371 730l-56 -159h-75l37 159h94z" />
    <glyph glyph-name="Ldot" unicode="&#x13f;" horiz-adv-x="574" 
d="M544 0h-451v712h108v-615h343v-97zM380 309v97h97v-97h-97z" />
    <glyph glyph-name="ldot" unicode="&#x140;" horiz-adv-x="340" 
d="M280 0h-63q-69 0 -104 39.5t-35 100.5v572h102v-566q0 -30 12.5 -44.5t42.5 -14.5h45v-87zM252 228v97h97v-97h-97z" />
    <glyph glyph-name="Lslash" unicode="&#x141;" horiz-adv-x="587" 
d="M557 0h-450v266l-69 -44v93l69 43v354h108v-286l141 89v-91l-141 -89v-238h342v-97z" />
    <glyph glyph-name="lslash" unicode="&#x142;" horiz-adv-x="326" 
d="M294 0h-63q-69 0 -104 39.5t-35 100.5v181l-59 -36v87l59 36v304h102v-242l70 43v-86l-70 -44v-237q0 -30 12.5 -44.5t42.5 -14.5h45v-87z" />
    <glyph glyph-name="Nacute" unicode="&#x143;" horiz-adv-x="722" 
d="M629 0h-99l-329 501v-501h-108v712h99l329 -500v500h108v-712zM497 943l-111 -162h-77l75 162h113z" />
    <glyph glyph-name="nacute" unicode="&#x144;" horiz-adv-x="568" 
d="M492 0h-102v309q0 57 -28 85t-74 28t-75.5 -28.5t-29.5 -84.5v-309h-102v507h100v-51q52 57 135 57q77 0 125 -46q51 -50 51 -143v-324zM420 761l-111 -162h-77l75 162h113z" />
    <glyph glyph-name="Ncommaaccent" unicode="&#x145;" horiz-adv-x="722" 
d="M629 0h-99l-329 501v-501h-108v712h99l329 -500v500h108v-712zM421 -64l-51 -147h-101l70 147h82z" />
    <glyph glyph-name="ncommaaccent" unicode="&#x146;" horiz-adv-x="568" 
d="M492 0h-102v309q0 57 -28 85t-74 28t-75.5 -28.5t-29.5 -84.5v-309h-102v507h100v-51q52 57 135 57q77 0 125 -46q51 -50 51 -143v-324zM353 -64l-51 -147h-101l70 147h82z" />
    <glyph glyph-name="Ncaron" unicode="&#x147;" horiz-adv-x="722" 
d="M629 0h-99l-329 501v-501h-108v712h99l329 -500v500h108v-712zM533 942l-129 -161h-86l-129 161h85l87 -97l87 97h85z" />
    <glyph glyph-name="ncaron" unicode="&#x148;" horiz-adv-x="568" 
d="M492 0h-102v309q0 57 -28 85t-74 28t-75.5 -28.5t-29.5 -84.5v-309h-102v507h100v-51q52 57 135 57q77 0 125 -46q51 -50 51 -143v-324zM456 760l-129 -161h-86l-129 161h85l87 -97l87 97h85z" />
    <glyph glyph-name="napostrophe" unicode="&#x149;" horiz-adv-x="568" 
d="M492 0h-102v309q0 57 -28 85t-74 28t-75.5 -28.5t-29.5 -84.5v-309h-102v507h100v-51q52 57 135 57q77 0 125 -46q51 -50 51 -143v-324zM81 612l-91 -76v198h91v-122z" />
    <glyph glyph-name="Eng" unicode="&#x14a;" horiz-adv-x="722" 
d="M629 -71q0 -61 -35 -100.5t-104 -39.5h-63v87h48q30 0 42.5 14.5t12.5 44.5v65l-329 501v-501h-108v712h99l329 -500v500h108v-783z" />
    <glyph glyph-name="eng" unicode="&#x14b;" horiz-adv-x="568" 
d="M492 -71q0 -61 -35 -100.5t-104 -39.5h-63v87h45q30 0 42.5 14.5t12.5 44.5v374q0 57 -28 85t-74 28t-75.5 -28.5t-29.5 -84.5v-309h-102v507h100v-51q52 57 135 57q77 0 125 -46q51 -50 51 -143v-395z" />
    <glyph glyph-name="Omacron" unicode="&#x14c;" horiz-adv-x="646" 
d="M579 356q0 -127 -11.5 -184t-60.5 -106q-72 -72 -184 -72t-184 72q-49 49 -60.5 106t-11.5 184t11.5 184t60.5 106q72 72 184 72t184 -72q49 -49 60.5 -106t11.5 -184zM471 356q0 108 -8 151.5t-34 70.5q-42 44 -106 44t-106 -44q-26 -28 -34 -71.5t-8 -150.5t8 -150
t34 -71q43 -45 106 -45t106 45q26 27 34 70t8 151zM168 795v73h309v-73h-309z" />
    <glyph glyph-name="omacron" unicode="&#x14d;" horiz-adv-x="537" 
d="M480 254q0 -138 -60 -200q-58 -60 -152 -60q-93 0 -151 60q-60 62 -60 200q0 69 13 116.5t47 82.5q58 60 151 60q94 0 152 -60q34 -35 47 -82.5t13 -116.5zM378 254q0 104 -35 139q-29 29 -75 29q-45 0 -74 -29q-35 -35 -35 -139t35 -139q30 -30 74 -30q45 0 75 30
q35 35 35 139zM113 618v73h309v-73h-309z" />
    <glyph glyph-name="Obreve" unicode="&#x14e;" horiz-adv-x="646" 
d="M579 356q0 -127 -11.5 -184t-60.5 -106q-72 -72 -184 -72t-184 72q-49 49 -60.5 106t-11.5 184t11.5 184t60.5 106q72 72 184 72t184 -72q49 -49 60.5 -106t11.5 -184zM471 356q0 108 -8 151.5t-34 70.5q-42 44 -106 44t-106 -44q-26 -28 -34 -71.5t-8 -150.5t8 -150
t34 -71q43 -45 106 -45t106 45q26 27 34 70t8 151zM488 937q-4 -73 -48 -109t-117 -36t-117 36t-48 109h72q4 -34 29.5 -52.5t63.5 -18.5t63.5 18.5t29.5 52.5h72z" />
    <glyph glyph-name="obreve" unicode="&#x14f;" horiz-adv-x="537" 
d="M480 254q0 -138 -60 -200q-58 -60 -152 -60q-93 0 -151 60q-60 62 -60 200q0 69 13 116.5t47 82.5q58 60 151 60q94 0 152 -60q34 -35 47 -82.5t13 -116.5zM378 254q0 104 -35 139q-29 29 -75 29q-45 0 -74 -29q-35 -35 -35 -139t35 -139q30 -30 74 -30q45 0 75 30
q35 35 35 139zM433 738q-4 -73 -47.5 -109t-116.5 -36q-74 0 -117.5 36t-47.5 109h72q4 -34 29 -52t64 -18q33 0 60.5 17.5t31.5 52.5h72z" />
    <glyph glyph-name="Ohungarumlaut" unicode="&#x150;" horiz-adv-x="646" 
d="M579 356q0 -127 -11.5 -184t-60.5 -106q-72 -72 -184 -72t-184 72q-49 49 -60.5 106t-11.5 184t11.5 184t60.5 106q72 72 184 72t184 -72q49 -49 60.5 -106t11.5 -184zM471 356q0 108 -8 151.5t-34 70.5q-42 44 -106 44t-106 -44q-26 -28 -34 -71.5t-8 -150.5t8 -150
t34 -71q43 -45 106 -45t106 45q26 27 34 70t8 151zM438 781h-77l76 161h112zM253 781h-77l76 161h112z" />
    <glyph glyph-name="ohungarumlaut" unicode="&#x151;" horiz-adv-x="537" 
d="M480 254q0 -138 -60 -200q-58 -60 -152 -60q-93 0 -151 60q-60 62 -60 200q0 69 13 116.5t47 82.5q58 60 151 60q94 0 152 -60q34 -35 47 -82.5t13 -116.5zM378 254q0 104 -35 139q-29 29 -75 29q-45 0 -74 -29q-35 -35 -35 -139t35 -139q30 -30 74 -30q45 0 75 30
q35 35 35 139zM383 599h-77l76 161h112zM198 599h-77l76 161h112z" />
    <glyph glyph-name="OE" unicode="&#x152;" horiz-adv-x="977" 
d="M321 -6q-110 0 -182 72q-48 49 -60 106.5t-12 183.5t12 183.5t60 106.5q72 72 182 72q95 0 150 -64v58h450v-96h-342v-210h291v-94h-291v-216h343v-96h-451v58q-55 -64 -150 -64zM322 90q65 0 107 45q26 28 34 70.5t8 150.5t-8 150.5t-34 70.5q-41 44 -108 44
q-63 0 -104 -43q-26 -28 -34 -71.5t-8 -150.5t8 -150t34 -71q43 -45 105 -45z" />
    <glyph glyph-name="oe" unicode="&#x153;" horiz-adv-x="862" 
d="M807 224h-329q0 -67 33.5 -104.5t95.5 -37.5q41 0 68.5 12t54.5 40l65 -61q-41 -41 -83 -60t-106 -19q-118 0 -175 80q-52 -80 -163 -80q-94 0 -151 60q-60 62 -60 200q0 69 13 116.5t47 82.5q57 60 151 60q112 0 164 -81q53 81 160 81q101 0 158 -66.5t57 -177.5v-45z
M378 254q0 104 -35 139q-29 29 -75 29q-45 0 -74 -29q-35 -35 -35 -139t35 -139q30 -30 74 -30q45 0 75 30q35 35 35 139zM707 295q-3 45 -14 69q-29 64 -100 64q-72 0 -101 -64q-12 -26 -13 -69h228z" />
    <glyph glyph-name="Racute" unicode="&#x154;" horiz-adv-x="655" 
d="M612 0h-126l-150 300h-135v-300h-108v712h276q100 0 160.5 -58t60.5 -150q0 -73 -39.5 -122.5t-102.5 -66.5zM482 503q0 52 -33 82t-88 30h-160v-223h160q55 0 88 29.5t33 81.5zM463 943l-111 -162h-77l75 162h113z" />
    <glyph glyph-name="racute" unicode="&#x155;" horiz-adv-x="439" 
d="M437 465l-77 -77q-34 34 -76 34q-43 0 -72 -31.5t-29 -82.5v-308h-102v507h100v-55q20 27 56.5 44t78.5 17q73 0 121 -48zM356 761l-111 -162h-77l75 162h113z" />
    <glyph glyph-name="Rcommaaccent" unicode="&#x156;" horiz-adv-x="655" 
d="M612 0h-126l-150 300h-135v-300h-108v712h276q100 0 160.5 -58t60.5 -150q0 -73 -39.5 -122.5t-102.5 -66.5zM482 503q0 52 -33 82t-88 30h-160v-223h160q55 0 88 29.5t33 81.5zM387 -64l-51 -147h-101l70 147h82z" />
    <glyph glyph-name="rcommaaccent" unicode="&#x157;" horiz-adv-x="439" 
d="M437 465l-77 -77q-34 34 -76 34q-43 0 -72 -31.5t-29 -82.5v-308h-102v507h100v-55q20 27 56.5 44t78.5 17q73 0 121 -48zM174 -64l-51 -147h-101l70 147h82z" />
    <glyph glyph-name="Rcaron" unicode="&#x158;" horiz-adv-x="655" 
d="M612 0h-126l-150 300h-135v-300h-108v712h276q100 0 160.5 -58t60.5 -150q0 -73 -39.5 -122.5t-102.5 -66.5zM482 503q0 52 -33 82t-88 30h-160v-223h160q55 0 88 29.5t33 81.5zM499 942l-129 -161h-86l-129 161h85l87 -97l87 97h85z" />
    <glyph glyph-name="rcaron" unicode="&#x159;" horiz-adv-x="439" 
d="M437 465l-77 -77q-34 34 -76 34q-43 0 -72 -31.5t-29 -82.5v-308h-102v507h100v-55q20 27 56.5 44t78.5 17q73 0 121 -48zM402 760l-129 -161h-86l-129 161h85l87 -97l87 97h85z" />
    <glyph glyph-name="Sacute" unicode="&#x15a;" horiz-adv-x="590" 
d="M538 203q0 -97 -71 -153t-185 -56q-82 0 -141.5 21.5t-110.5 72.5l71 71q69 -69 183 -69q70 0 108.5 28.5t38.5 81.5q0 50 -28 74q-26 23 -78 30l-84 12q-89 14 -134 57q-53 48 -53 137q0 94 64 151t174 57q71 0 123 -19t98 -62l-68 -68q-58 55 -157 55
q-62 0 -95.5 -30.5t-33.5 -80.5q0 -44 26 -66q27 -24 78 -32l85 -13q88 -14 132 -53q58 -53 58 -146zM431 943l-111 -162h-77l75 162h113z" />
    <glyph glyph-name="sacute" unicode="&#x15b;" horiz-adv-x="499" 
d="M456 155q0 -77 -58.5 -119t-152.5 -42q-139 0 -213 73l67 67q52 -53 146 -53q50 0 80.5 17.5t30.5 52.5q0 53 -68 60l-81 7q-150 14 -150 140q0 73 54 114t137 41q123 0 188 -57l-64 -65q-44 37 -125 37q-45 0 -68.5 -17.5t-23.5 -47.5q0 -27 16.5 -40.5t53.5 -17.5
l71 -6q160 -14 160 -144zM386 761l-111 -162h-77l75 162h113z" />
    <glyph glyph-name="Scircumflex" unicode="&#x15c;" horiz-adv-x="590" 
d="M538 203q0 -97 -71 -153t-185 -56q-82 0 -141.5 21.5t-110.5 72.5l71 71q69 -69 183 -69q70 0 108.5 28.5t38.5 81.5q0 50 -28 74q-26 23 -78 30l-84 12q-89 14 -134 57q-53 48 -53 137q0 94 64 151t174 57q71 0 123 -19t98 -62l-68 -68q-58 55 -157 55
q-62 0 -95.5 -30.5t-33.5 -80.5q0 -44 26 -66q27 -24 78 -32l85 -13q88 -14 132 -53q58 -53 58 -146zM466 781h-85l-87 97l-87 -97h-85l129 161h86z" />
    <glyph glyph-name="scircumflex" unicode="&#x15d;" horiz-adv-x="499" 
d="M456 155q0 -77 -58.5 -119t-152.5 -42q-139 0 -213 73l67 67q52 -53 146 -53q50 0 80.5 17.5t30.5 52.5q0 53 -68 60l-81 7q-150 14 -150 140q0 73 54 114t137 41q123 0 188 -57l-64 -65q-44 37 -125 37q-45 0 -68.5 -17.5t-23.5 -47.5q0 -27 16.5 -40.5t53.5 -17.5
l71 -6q160 -14 160 -144zM429 599h-85l-87 97l-87 -97h-85l129 161h86z" />
    <glyph glyph-name="Scedilla" unicode="&#x15e;" horiz-adv-x="590" 
d="M538 203q0 -97 -71 -153t-185 -56q-82 0 -141.5 21.5t-110.5 72.5l71 71q69 -69 183 -69q70 0 108.5 28.5t38.5 81.5q0 50 -28 74q-26 23 -78 30l-84 12q-89 14 -134 57q-53 48 -53 137q0 94 64 151t174 57q71 0 123 -19t98 -62l-68 -68q-58 55 -157 55
q-62 0 -95.5 -30.5t-33.5 -80.5q0 -44 26 -66q27 -24 78 -32l85 -13q88 -14 132 -53q58 -53 58 -146zM364 -64l-51 -147h-101l70 147h82z" />
    <glyph glyph-name="scedilla" unicode="&#x15f;" horiz-adv-x="499" 
d="M456 155q0 -77 -58.5 -119t-152.5 -42q-139 0 -213 73l67 67q52 -53 146 -53q50 0 80.5 17.5t30.5 52.5q0 53 -68 60l-81 7q-150 14 -150 140q0 73 54 114t137 41q123 0 188 -57l-64 -65q-44 37 -125 37q-45 0 -68.5 -17.5t-23.5 -47.5q0 -27 16.5 -40.5t53.5 -17.5
l71 -6q160 -14 160 -144zM319 -64l-51 -147h-101l70 147h82z" />
    <glyph glyph-name="Scaron" unicode="&#x160;" horiz-adv-x="590" 
d="M538 203q0 -97 -71 -153t-185 -56q-82 0 -141.5 21.5t-110.5 72.5l71 71q69 -69 183 -69q70 0 108.5 28.5t38.5 81.5q0 50 -28 74q-26 23 -78 30l-84 12q-89 14 -134 57q-53 48 -53 137q0 94 64 151t174 57q71 0 123 -19t98 -62l-68 -68q-58 55 -157 55
q-62 0 -95.5 -30.5t-33.5 -80.5q0 -44 26 -66q27 -24 78 -32l85 -13q88 -14 132 -53q58 -53 58 -146zM464 942l-129 -161h-86l-129 161h85l87 -97l87 97h85z" />
    <glyph glyph-name="scaron" unicode="&#x161;" horiz-adv-x="499" 
d="M456 155q0 -77 -58.5 -119t-152.5 -42q-139 0 -213 73l67 67q52 -53 146 -53q50 0 80.5 17.5t30.5 52.5q0 53 -68 60l-81 7q-150 14 -150 140q0 73 54 114t137 41q123 0 188 -57l-64 -65q-44 37 -125 37q-45 0 -68.5 -17.5t-23.5 -47.5q0 -27 16.5 -40.5t53.5 -17.5
l71 -6q160 -14 160 -144zM420 760l-129 -161h-86l-129 161h85l87 -97l87 97h85z" />
    <glyph glyph-name="Tcommaaccent" unicode="&#x162;" horiz-adv-x="560" 
d="M530 615h-196v-615h-108v615h-196v97h500v-97zM321 -64l-51 -147h-101l70 147h82z" />
    <glyph glyph-name="tcommaaccent" unicode="&#x163;" horiz-adv-x="342" 
d="M293 0h-61q-67 0 -103 41t-36 100v288h-58v78h58v145h102v-145h98v-78h-98v-283q0 -59 56 -59h42v-87zM241 -64l-51 -147h-101l70 147h82z" />
    <glyph glyph-name="Tcaron" unicode="&#x164;" horiz-adv-x="560" 
d="M530 615h-196v-615h-108v615h-196v97h500v-97zM452 942l-129 -161h-86l-129 161h85l87 -97l87 97h85z" />
    <glyph glyph-name="tcaron" unicode="&#x165;" horiz-adv-x="342" 
d="M293 0h-61q-67 0 -103 41t-36 100v288h-58v78h58v145h102v-145h98v-78h-98v-283q0 -59 56 -59h42v-87zM386 730l-56 -159h-75l37 159h94z" />
    <glyph glyph-name="Tbar" unicode="&#x166;" horiz-adv-x="560" 
d="M530 615h-196v-214h106v-83h-106v-318h-108v318h-106v83h106v214h-196v97h500v-97z" />
    <glyph glyph-name="tbar" unicode="&#x167;" horiz-adv-x="342" 
d="M293 0h-61q-67 0 -103 41t-36 100v98h-58v78h58v112h-58v78h58v145h102v-145h98v-78h-98v-112h98v-78h-98v-93q0 -59 56 -59h42v-87z" />
    <glyph glyph-name="Utilde" unicode="&#x168;" horiz-adv-x="675" 
d="M593 240q0 -109 -73 -177.5t-183 -68.5t-182.5 68.5t-72.5 177.5v472h108v-467q0 -71 40 -112.5t107 -41.5t107.5 41.5t40.5 112.5v467h108v-472zM508 846q-55 -55 -104 -55q-35 0 -75 23q-33 19 -56 19q-28 0 -58 -30l-48 47q55 55 104 55q35 0 75 -24q32 -19 55 -19
q28 0 59 31z" />
    <glyph glyph-name="utilde" unicode="&#x169;" horiz-adv-x="568" 
d="M487 0h-100v51q-53 -57 -135 -57q-77 0 -125 46q-51 50 -51 143v324h102v-309q0 -56 28 -84.5t74 -28.5t75.5 28.5t29.5 84.5v309h102v-507zM451 664q-55 -55 -104 -55q-35 0 -75 23q-33 19 -56 19q-28 0 -58 -30l-48 47q55 55 104 55q34 0 75 -24q32 -19 55 -19
q28 0 59 31z" />
    <glyph glyph-name="Umacron" unicode="&#x16a;" horiz-adv-x="675" 
d="M593 240q0 -109 -73 -177.5t-183 -68.5t-182.5 68.5t-72.5 177.5v472h108v-467q0 -71 40 -112.5t107 -41.5t107.5 41.5t40.5 112.5v467h108v-472zM182 795v73h309v-73h-309z" />
    <glyph glyph-name="umacron" unicode="&#x16b;" horiz-adv-x="568" 
d="M487 0h-100v51q-53 -57 -135 -57q-77 0 -125 46q-51 50 -51 143v324h102v-309q0 -56 28 -84.5t74 -28.5t75.5 28.5t29.5 84.5v309h102v-507zM128 618v73h309v-73h-309z" />
    <glyph glyph-name="Ubreve" unicode="&#x16c;" horiz-adv-x="675" 
d="M593 240q0 -109 -73 -177.5t-183 -68.5t-182.5 68.5t-72.5 177.5v472h108v-467q0 -71 40 -112.5t107 -41.5t107.5 41.5t40.5 112.5v467h108v-472zM502 937q-4 -73 -48 -109t-117 -36t-117 36t-48 109h72q4 -34 29.5 -52.5t63.5 -18.5t63.5 18.5t29.5 52.5h72z" />
    <glyph glyph-name="ubreve" unicode="&#x16d;" horiz-adv-x="568" 
d="M487 0h-100v51q-53 -57 -135 -57q-77 0 -125 46q-51 50 -51 143v324h102v-309q0 -56 28 -84.5t74 -28.5t75.5 28.5t29.5 84.5v309h102v-507zM444 738q-4 -73 -47.5 -109t-116.5 -36q-74 0 -117.5 36t-47.5 109h72q4 -34 29 -52t64 -18q33 0 60.5 17.5t31.5 52.5h72z" />
    <glyph glyph-name="Uring" unicode="&#x16e;" horiz-adv-x="675" 
d="M593 240q0 -109 -73 -177.5t-183 -68.5t-182.5 68.5t-72.5 177.5v472h108v-467q0 -71 40 -112.5t107 -41.5t107.5 41.5t40.5 112.5v467h108v-472zM462 883q0 -52 -36.5 -88.5t-88.5 -36.5t-88.5 36.5t-36.5 88.5t36.5 88.5t88.5 36.5t88.5 -36.5t36.5 -88.5zM401 883
q0 26 -19 44.5t-45 18.5t-45 -18.5t-19 -44.5t19 -44.5t45 -18.5t45 18.5t19 44.5z" />
    <glyph glyph-name="uring" unicode="&#x16f;" horiz-adv-x="568" 
d="M487 0h-100v51q-53 -57 -135 -57q-77 0 -125 46q-51 50 -51 143v324h102v-309q0 -56 28 -84.5t74 -28.5t75.5 28.5t29.5 84.5v309h102v-507zM409 701q0 -52 -36.5 -88.5t-88.5 -36.5t-88.5 36.5t-36.5 88.5t36.5 88.5t88.5 36.5t88.5 -36.5t36.5 -88.5zM348 701
q0 26 -19 44.5t-45 18.5t-45 -18.5t-19 -44.5t19 -44.5t45 -18.5t45 18.5t19 44.5z" />
    <glyph glyph-name="Uhungarumlaut" unicode="&#x170;" horiz-adv-x="675" 
d="M593 240q0 -109 -73 -177.5t-183 -68.5t-182.5 68.5t-72.5 177.5v472h108v-467q0 -71 40 -112.5t107 -41.5t107.5 41.5t40.5 112.5v467h108v-472zM452 781h-77l76 161h112zM267 781h-77l76 161h112z" />
    <glyph glyph-name="uhungarumlaut" unicode="&#x171;" horiz-adv-x="568" 
d="M487 0h-100v51q-53 -57 -135 -57q-77 0 -125 46q-51 50 -51 143v324h102v-309q0 -56 28 -84.5t74 -28.5t75.5 28.5t29.5 84.5v309h102v-507zM399 599h-77l76 161h112zM214 599h-77l76 161h112z" />
    <glyph glyph-name="Uogonek" unicode="&#x172;" horiz-adv-x="675" 
d="M593 240q0 -109 -73 -177.5t-183 -68.5t-182.5 68.5t-72.5 177.5v472h108v-467q0 -71 40 -112.5t107 -41.5t107.5 41.5t40.5 112.5v467h108v-472zM495 -64l-51 -147h-101l70 147h82z" />
    <glyph glyph-name="uogonek" unicode="&#x173;" horiz-adv-x="568" 
d="M487 0h-100v51q-53 -57 -135 -57q-77 0 -125 46q-51 50 -51 143v324h102v-309q0 -56 28 -84.5t74 -28.5t75.5 28.5t29.5 84.5v309h102v-507zM469 -64l-51 -147h-101l70 147h82z" />
    <glyph glyph-name="Wcircumflex" unicode="&#x174;" horiz-adv-x="871" 
d="M860 712l-186 -712h-94l-145 499l-144 -499h-94l-186 712h114l124 -509l143 509h87l143 -509l124 509h114zM607 781h-85l-87 97l-87 -97h-85l129 161h86z" />
    <glyph glyph-name="wcircumflex" unicode="&#x175;" horiz-adv-x="743" 
d="M735 507l-158 -507h-87l-119 354l-118 -354h-88l-157 507h108l98 -357l118 357h79l117 -357l98 357h109zM543 599h-85l-87 97l-87 -97h-85l129 161h86z" />
    <glyph glyph-name="Ycircumflex" unicode="&#x176;" horiz-adv-x="544" 
d="M539 712l-213 -419v-293h-108v293l-213 419h118l149 -313l149 313h118zM444 781h-85l-87 97l-87 -97h-85l129 161h86z" />
    <glyph glyph-name="ycircumflex" unicode="&#x177;" horiz-adv-x="468" 
d="M464 507l-224 -608q-14 -40 -37 -63q-37 -37 -104 -37h-41v92h26q32 0 47 11.5t26 42.5l28 79l-177 483h108l121 -357l118 357h109zM408 599h-85l-87 97l-87 -97h-85l129 161h86z" />
    <glyph glyph-name="Ydieresis" unicode="&#x178;" horiz-adv-x="544" 
d="M539 712l-213 -419v-293h-108v293l-213 419h118l149 -313l149 313h118zM210 786h-92v108h92v-108zM426 786h-92v108h92v-108z" />
    <glyph glyph-name="Zacute" unicode="&#x179;" horiz-adv-x="552" 
d="M504 0h-456v93l329 522h-315v97h442v-88l-331 -527h331v-97zM412 943l-111 -162h-77l75 162h113z" />
    <glyph glyph-name="zacute" unicode="&#x17a;" horiz-adv-x="469" 
d="M421 0h-378v81l252 335h-238v91h364v-81l-254 -335h254v-91zM371 761l-111 -162h-77l75 162h113z" />
    <glyph glyph-name="Zdotaccent" unicode="&#x17b;" horiz-adv-x="552" 
d="M504 0h-456v93l329 522h-315v97h442v-88l-331 -527h331v-97zM226 793v97h97v-97h-97z" />
    <glyph glyph-name="zdotaccent" unicode="&#x17c;" horiz-adv-x="469" 
d="M421 0h-378v81l252 335h-238v91h364v-81l-254 -335h254v-91zM186 611v97h97v-97h-97z" />
    <glyph glyph-name="Zcaron" unicode="&#x17d;" horiz-adv-x="552" 
d="M504 0h-456v93l329 522h-315v97h442v-88l-331 -527h331v-97zM453 942l-129 -161h-86l-129 161h85l87 -97l87 97h85z" />
    <glyph glyph-name="zcaron" unicode="&#x17e;" horiz-adv-x="469" 
d="M421 0h-378v81l252 335h-238v91h364v-81l-254 -335h254v-91zM411 760l-129 -161h-86l-129 161h85l87 -97l87 97h85z" />
    <glyph glyph-name="longs" unicode="&#x17f;" horiz-adv-x="264" 
d="M183 571v-571h-102v576q0 59 36 100t103 41h64v-87h-45q-56 0 -56 -59z" />
    <glyph glyph-name="uni018F" unicode="&#x18f;" horiz-adv-x="649" 
d="M66 276v109h408q-1 88 -9.5 127.5t-32.5 65.5q-42 44 -106 44q-59 0 -97.5 -32.5t-52.5 -91.5h-108q15 96 82.5 158t175.5 62q112 0 184 -72q48 -49 60 -106.5t12 -183.5t-12 -183.5t-60 -106.5q-72 -72 -184 -72q-119 0 -196 81q-35 38 -49.5 84.5t-14.5 116.5zM174 293
v-40q0 -72 35 -112q43 -51 117 -51q64 0 106 44q22 23 31 57t10 102h-299z" />
    <glyph glyph-name="florin" unicode="&#x192;" horiz-adv-x="415" 
d="M385 630h-59q-55 0 -66 -59l-32 -180h101v-78h-115l-91 -518h-102l91 518h-82v78h96l33 185q11 59 53.5 100t109.5 41h63v-87z" />
    <glyph glyph-name="uni01B5" unicode="&#x1b5;" horiz-adv-x="552" 
d="M504 0h-456v93l142 225h-73v83h125l135 214h-315v97h442v-88l-140 -223h73v-83h-125l-139 -221h331v-97z" />
    <glyph glyph-name="uni01B6" unicode="&#x1b6;" horiz-adv-x="469" 
d="M421 0h-378v81l102 136h-28v73h83l95 126h-238v91h364v-81l-103 -136h29v-73h-85l-95 -126h254v-91z" />
    <glyph glyph-name="uni01C4" unicode="&#x1c4;" horiz-adv-x="1218" 
d="M599 356q0 -104 -9.5 -163.5t-44.5 -102.5q-73 -90 -202 -90h-250v712h250q129 0 202 -90q35 -43 44.5 -102.5t9.5 -163.5zM491 356q0 91 -7 137.5t-31 73.5q-42 49 -122 49h-130v-520h130q80 0 122 49q24 27 31 73.5t7 137.5zM1170 0h-456v93l329 522h-315v97h442v-88
l-331 -527h331v-97zM1119 942l-129 -161h-86l-129 161h85l87 -97l87 97h85z" />
    <glyph glyph-name="uni01C5" unicode="&#x1c5;" horiz-adv-x="1135" 
d="M599 356q0 -104 -9.5 -163.5t-44.5 -102.5q-73 -90 -202 -90h-250v712h250q129 0 202 -90q35 -43 44.5 -102.5t9.5 -163.5zM491 356q0 91 -7 137.5t-31 73.5q-42 49 -122 49h-130v-520h130q80 0 122 49q24 27 31 73.5t7 137.5zM1087 0h-378v81l252 335h-238v91h364v-81
l-254 -335h254v-91zM1077 760l-129 -161h-86l-129 161h85l87 -97l87 97h85z" />
    <glyph glyph-name="uni01C6" unicode="&#x1c6;" horiz-adv-x="1022" 
d="M472 0h-100v54q-50 -60 -134 -60q-79 0 -124 45q-57 58 -57 215q0 156 57 214q45 45 123 45q85 0 133 -57v256h102v-712zM370 254q0 38 -3.5 65t-14 52t-32.5 38t-55 13q-34 0 -56 -13t-32.5 -38t-14 -52t-3.5 -65t3.5 -65t14 -52.5t33 -38.5t55.5 -13t55 13t32.5 38.5
t14 52.5t3.5 65zM974 0h-378v81l252 335h-238v91h364v-81l-254 -335h254v-91zM964 760l-129 -161h-86l-129 161h85l87 -97l87 97h85z" />
    <glyph glyph-name="uni01C7" unicode="&#x1c7;" horiz-adv-x="1080" 
d="M544 0h-451v712h108v-615h343v-97zM997 225q0 -107 -67.5 -169t-169.5 -62q-104 0 -173 69l72 71q22 -22 43.5 -32.5t57.5 -10.5q61 0 95 36.5t34 105.5v479h108v-487z" />
    <glyph glyph-name="uni01C8" unicode="&#x1c8;" horiz-adv-x="838" 
d="M544 0h-451v712h108v-615h343v-97zM757 -67q0 -61 -35 -100.5t-104 -39.5h-63v87h45q30 0 42.5 14.5t12.5 44.5v568h102v-574zM760 607h-108v108h108v-108z" />
    <glyph glyph-name="uni01C9" unicode="&#x1c9;" horiz-adv-x="575" 
d="M280 0h-63q-69 0 -104 39.5t-35 100.5v572h102v-566q0 -30 12.5 -44.5t42.5 -14.5h45v-87zM494 -67q0 -61 -35 -100.5t-104 -39.5h-63v87h45q30 0 42.5 14.5t12.5 44.5v568h102v-574zM497 607h-108v108h108v-108z" />
    <glyph glyph-name="uni01CA" unicode="&#x1ca;" horiz-adv-x="1228" 
d="M629 0h-99l-329 501v-501h-108v712h99l329 -500v500h108v-712zM1145 225q0 -107 -67.5 -169t-169.5 -62q-104 0 -173 69l72 71q22 -22 43.5 -32.5t57.5 -10.5q61 0 95 36.5t34 105.5v479h108v-487z" />
    <glyph glyph-name="uni01CB" unicode="&#x1cb;" horiz-adv-x="986" 
d="M629 0h-99l-329 501v-501h-108v712h99l329 -500v500h108v-712zM905 -67q0 -61 -35 -100.5t-104 -39.5h-63v87h45q30 0 42.5 14.5t12.5 44.5v568h102v-574zM908 607h-108v108h108v-108z" />
    <glyph glyph-name="uni01CC" unicode="&#x1cc;" horiz-adv-x="832" 
d="M492 0h-102v309q0 57 -28 85t-74 28t-75.5 -28.5t-29.5 -84.5v-309h-102v507h100v-51q52 57 135 57q77 0 125 -46q51 -50 51 -143v-324zM751 -67q0 -61 -35 -100.5t-104 -39.5h-63v87h45q30 0 42.5 14.5t12.5 44.5v568h102v-574zM754 607h-108v108h108v-108z" />
    <glyph glyph-name="uni01F1" unicode="&#x1f1;" horiz-adv-x="1218" 
d="M599 356q0 -104 -9.5 -163.5t-44.5 -102.5q-73 -90 -202 -90h-250v712h250q129 0 202 -90q35 -43 44.5 -102.5t9.5 -163.5zM491 356q0 91 -7 137.5t-31 73.5q-42 49 -122 49h-130v-520h130q80 0 122 49q24 27 31 73.5t7 137.5zM1170 0h-456v93l329 522h-315v97h442v-88
l-331 -527h331v-97z" />
    <glyph glyph-name="uni01F2" unicode="&#x1f2;" horiz-adv-x="1135" 
d="M599 356q0 -104 -9.5 -163.5t-44.5 -102.5q-73 -90 -202 -90h-250v712h250q129 0 202 -90q35 -43 44.5 -102.5t9.5 -163.5zM491 356q0 91 -7 137.5t-31 73.5q-42 49 -122 49h-130v-520h130q80 0 122 49q24 27 31 73.5t7 137.5zM1087 0h-378v81l252 335h-238v91h364v-81
l-254 -335h254v-91z" />
    <glyph glyph-name="uni01F3" unicode="&#x1f3;" horiz-adv-x="1022" 
d="M472 0h-100v54q-50 -60 -134 -60q-79 0 -124 45q-57 58 -57 215q0 156 57 214q45 45 123 45q85 0 133 -57v256h102v-712zM370 254q0 38 -3.5 65t-14 52t-32.5 38t-55 13q-34 0 -56 -13t-32.5 -38t-14 -52t-3.5 -65t3.5 -65t14 -52.5t33 -38.5t55.5 -13t55 13t32.5 38.5
t14 52.5t3.5 65zM974 0h-378v81l252 335h-238v91h364v-81l-254 -335h254v-91z" />
    <glyph glyph-name="Aringacute" unicode="&#x1fa;" horiz-adv-x="625" 
d="M617 0h-115l-49 143h-281l-49 -143h-115l261 712h87zM423 235l-108 316l-111 -316h219zM435 875q0 -52 -36.5 -88.5t-88.5 -36.5t-88.5 36.5t-36.5 88.5t36.5 88.5t88.5 36.5t88.5 -36.5t36.5 -88.5zM374 875q0 26 -19 44.5t-45 18.5t-45 -18.5t-19 -44.5t19 -44.5
t45 -18.5t45 18.5t19 44.5zM446 1172l-111 -162h-77l75 162h113z" />
    <glyph glyph-name="aringacute" unicode="&#x1fb;" horiz-adv-x="530" 
d="M454 0h-100v46q-28 -28 -58.5 -40t-76.5 -12q-90 0 -136 46q-40 42 -40 109q0 66 45.5 106t130.5 40h133v36q0 49 -26 72t-85 23q-40 0 -64.5 -11.5t-46.5 -38.5l-66 63q35 41 75.5 57.5t105.5 16.5q209 0 209 -174v-339zM352 183v41h-117q-93 0 -93 -73q0 -72 96 -72
q61 0 92 29q22 21 22 75zM382 701q0 -52 -36.5 -88.5t-88.5 -36.5t-88.5 36.5t-36.5 88.5t36.5 88.5t88.5 36.5t88.5 -36.5t36.5 -88.5zM321 701q0 26 -19 44.5t-45 18.5t-45 -18.5t-19 -44.5t19 -44.5t45 -18.5t45 18.5t19 44.5zM393 998l-111 -162h-77l75 162h113z" />
    <glyph glyph-name="AEacute" unicode="&#x1fc;" horiz-adv-x="952" 
d="M897 0h-455v162h-235l-84 -162h-118l374 712h518v-97h-347v-209h296v-97h-296v-212h347v-97zM442 254v361l-188 -361h188zM636 943l-111 -162h-77l75 162h113z" />
    <glyph glyph-name="aeacute" unicode="&#x1fd;" horiz-adv-x="837" 
d="M782 224h-329q0 -67 33.5 -104.5t95.5 -37.5q41 0 68.5 12t54.5 40l65 -61q-40 -41 -83 -60t-107 -19q-121 0 -179 79q-38 -45 -79 -62t-103 -17q-90 0 -136 46q-40 42 -40 109q0 66 45.5 106t130.5 40h133v36q0 49 -26 72t-85 23q-40 0 -64.5 -11.5t-46.5 -38.5l-66 63
q35 41 75.5 57.5t105.5 16.5q124 0 172 -67q52 67 150 67q101 0 158 -66.5t57 -179.5v-43zM682 295q-3 45 -14 69q-29 64 -100 64q-72 0 -101 -64q-12 -26 -13 -69h228zM352 183v41h-117q-93 0 -93 -73q0 -72 96 -72q61 0 92 29q22 21 22 75zM548 761l-111 -162h-77l75 162
h113z" />
    <glyph glyph-name="Oslashacute" unicode="&#x1fe;" horiz-adv-x="646" 
d="M556 756l-52 -107q51 -50 63 -107t12 -186q0 -127 -11.5 -184t-60.5 -106q-72 -72 -184 -72q-68 0 -120 26l-30 -64h-82l51 107l-3 3q-48 48 -60 106t-12 184t12 183.5t60 106.5q72 72 184 72q68 0 120 -26l30 64h83zM175 356q0 -147 21 -190l207 433q-34 23 -80 23
q-64 0 -106 -44q-26 -28 -34 -71.5t-8 -150.5zM471 356q0 148 -20 190l-207 -433q34 -23 79 -23q64 0 106 45q26 28 34 70.5t8 150.5zM459 943l-111 -162h-77l75 162h113z" />
    <glyph glyph-name="oslashacute" unicode="&#x1ff;" horiz-adv-x="537" 
d="M480 254q0 -138 -60 -200q-58 -60 -152 -60q-57 0 -104 25l-37 -63h-69l58 99q-34 35 -46.5 82.5t-12.5 116.5t13 116.5t47 82.5q58 60 151 60q58 0 105 -25l37 63h69l-59 -98q34 -35 47 -82.5t13 -116.5zM378 254q0 74 -15 109l-154 -260q26 -18 59 -18q45 0 75 30
q35 35 35 139zM328 405q-26 17 -60 17q-45 0 -74 -29q-35 -35 -35 -139q0 -74 15 -109zM404 761l-111 -162h-77l75 162h113z" />
    <glyph glyph-name="Scommaaccent" unicode="&#x218;" horiz-adv-x="590" 
d="M538 203q0 -97 -71 -153t-185 -56q-82 0 -141.5 21.5t-110.5 72.5l71 71q69 -69 183 -69q70 0 108.5 28.5t38.5 81.5q0 50 -28 74q-26 23 -78 30l-84 12q-89 14 -134 57q-53 48 -53 137q0 94 64 151t174 57q71 0 123 -19t98 -62l-68 -68q-58 55 -157 55
q-62 0 -95.5 -30.5t-33.5 -80.5q0 -44 26 -66q27 -24 78 -32l85 -13q88 -14 132 -53q58 -53 58 -146zM364 -64l-51 -147h-101l70 147h82z" />
    <glyph glyph-name="scommaaccent" unicode="&#x219;" horiz-adv-x="499" 
d="M456 155q0 -77 -58.5 -119t-152.5 -42q-139 0 -213 73l67 67q52 -53 146 -53q50 0 80.5 17.5t30.5 52.5q0 53 -68 60l-81 7q-150 14 -150 140q0 73 54 114t137 41q123 0 188 -57l-64 -65q-44 37 -125 37q-45 0 -68.5 -17.5t-23.5 -47.5q0 -27 16.5 -40.5t53.5 -17.5
l71 -6q160 -14 160 -144zM320 -64l-51 -147h-101l70 147h82z" />
    <glyph glyph-name="uni021A" unicode="&#x21a;" horiz-adv-x="560" 
d="M530 615h-196v-615h-108v615h-196v97h500v-97zM321 -64l-51 -147h-101l70 147h82z" />
    <glyph glyph-name="uni021B" unicode="&#x21b;" horiz-adv-x="342" 
d="M293 0h-61q-67 0 -103 41t-36 100v288h-58v78h58v145h102v-145h98v-78h-98v-283q0 -59 56 -59h42v-87zM241 -64l-51 -147h-101l70 147h82z" />
    <glyph glyph-name="uni0237" unicode="&#x237;" horiz-adv-x="264" 
d="M183 -67q0 -61 -35 -100.5t-104 -39.5h-63v87h45q30 0 42.5 14.5t12.5 44.5v568h102v-574z" />
    <glyph glyph-name="uni0259" unicode="&#x259;" horiz-adv-x="539" 
d="M54 283h329q0 67 -33.5 104.5t-95.5 37.5q-41 0 -68 -12t-55 -40l-65 61q41 41 83.5 60t106.5 19q104 0 166 -62t62 -198q0 -122 -58 -190.5t-157 -68.5q-101 0 -158 67t-57 179v43zM155 212q3 -45 14 -69q29 -64 100 -64q72 0 101 64q12 26 13 69h-228z" />
    <glyph glyph-name="uni02BB" unicode="&#x2bb;" horiz-adv-x="268" 
d="M190 608h-112v104l112 93v-197z" />
    <glyph glyph-name="afii57929" unicode="&#x2bc;" horiz-adv-x="268" 
d="M190 607l-112 -91v196h112v-105z" />
    <glyph glyph-name="circumflex" unicode="&#x2c6;" horiz-adv-x="500" 
d="M422 599h-85l-87 97l-87 -97h-85l129 161h86z" />
    <glyph glyph-name="caron" unicode="&#x2c7;" horiz-adv-x="500" 
d="M422 760l-129 -161h-86l-129 161h85l87 -97l87 97h85z" />
    <glyph glyph-name="breve" unicode="&#x2d8;" horiz-adv-x="500" 
d="M414 738q-4 -73 -47.5 -109t-116.5 -36q-74 0 -117.5 36t-47.5 109h72q4 -34 29 -52t64 -18q33 0 60.5 17.5t31.5 52.5h72z" />
    <glyph glyph-name="dotaccent" unicode="&#x2d9;" horiz-adv-x="500" 
d="M201 611v97h97v-97h-97z" />
    <glyph glyph-name="ring" unicode="&#x2da;" horiz-adv-x="500" 
d="M375 701q0 -52 -36.5 -88.5t-88.5 -36.5t-88.5 36.5t-36.5 88.5t36.5 88.5t88.5 36.5t88.5 -36.5t36.5 -88.5zM314 701q0 26 -19 44.5t-45 18.5t-45 -18.5t-19 -44.5t19 -44.5t45 -18.5t45 18.5t19 44.5z" />
    <glyph glyph-name="ogonek" unicode="&#x2db;" horiz-adv-x="500" 
d="M389 -64l-51 -147h-101l70 147h82z" />
    <glyph glyph-name="tilde" unicode="&#x2dc;" horiz-adv-x="537" 
d="M436 664q-55 -55 -104 -55q-35 0 -75 23q-33 19 -56 19q-28 0 -58 -30l-48 47q55 55 104 55q35 0 75 -24q32 -19 55 -19q28 0 59 31z" />
    <glyph glyph-name="hungarumlaut" unicode="&#x2dd;" horiz-adv-x="500" 
d="M345 599h-77l76 161h112zM160 599h-77l76 161h112z" />
    <glyph glyph-name="uni037E" unicode="&#x37e;" horiz-adv-x="303" 
d="M222 -60l-116 -95v271h116v-176zM225 285h-121v122h121v-122z" />
    <glyph glyph-name="tonos" unicode="&#x384;" horiz-adv-x="240" 
d="M174 610l-102 -44v146h102v-102z" />
    <glyph glyph-name="dieresistonos" unicode="&#x385;" horiz-adv-x="470" 
d="M420 574h-92v108h92v-108zM286 610l-102 -44v146h102v-102zM142 574h-92v108h92v-108z" />
    <glyph glyph-name="Alphatonos" unicode="&#x386;" horiz-adv-x="625" 
d="M617 0h-115l-49 143h-281l-49 -143h-115l261 712h87zM423 235l-108 316l-111 -316h219zM93 610l-102 -44v146h102v-102z" />
    <glyph glyph-name="anoteleia" unicode="&#x387;" horiz-adv-x="278" 
d="M200 217h-122v122h122v-122z" />
    <glyph glyph-name="Epsilontonos" unicode="&#x388;" horiz-adv-x="603" 
d="M13 610l-102 -44v146h102v-102zM548 0h-455v712h455v-97h-347v-208h296v-96h-296v-214h347v-97z" />
    <glyph glyph-name="Etatonos" unicode="&#x389;" horiz-adv-x="691" 
d="M598 0h-108v311h-289v-311h-108v712h108v-304h289v304h108v-712zM13 610l-102 -44v146h102v-102z" />
    <glyph glyph-name="Iotatonos" unicode="&#x38a;" horiz-adv-x="294" 
d="M201 0h-108v712h108v-712zM13 610l-102 -44v146h102v-102z" />
    <glyph glyph-name="Omicrontonos" unicode="&#x38c;" horiz-adv-x="646" 
d="M579 356q0 -127 -11.5 -184t-60.5 -106q-72 -72 -184 -72t-184 72q-49 49 -60.5 106t-11.5 184t11.5 184t60.5 106q72 72 184 72t184 -72q49 -49 60.5 -106t11.5 -184zM471 356q0 108 -8 151.5t-34 70.5q-42 44 -106 44t-106 -44q-26 -28 -34 -71.5t-8 -150.5t8 -150
t34 -71q43 -45 106 -45t106 45q26 27 34 70t8 151zM34 610l-102 -44v146h102v-102z" />
    <glyph glyph-name="Upsilontonos" unicode="&#x38e;" horiz-adv-x="544" 
d="M539 712l-213 -419v-293h-108v293l-213 419h118l149 -313l149 313h118zM-17 610l-102 -44v146h102v-102z" />
    <glyph glyph-name="Omegatonos" unicode="&#x38f;" horiz-adv-x="647" 
d="M33 610l-102 -44v146h102v-102zM579 356q0 -144 -25 -200q-16 -34 -45 -60h70v-96h-207v87q49 23 73 60q15 23 20.5 68t5.5 137q0 108 -8 152.5t-34 72.5q-42 45 -106 45t-106 -45q-26 -28 -34 -72.5t-8 -152.5q0 -164 27 -205q24 -38 72 -60v-87h-207v96h71
q-31 28 -46 60q-25 56 -25 200q0 126 12 183.5t60 106.5q72 72 184 72t184 -72q49 -49 60.5 -106t11.5 -184z" />
    <glyph glyph-name="iotadieresistonos" unicode="&#x390;" horiz-adv-x="311" 
d="M280 0h-63q-69 0 -104 39.5t-35 100.5v367h102v-361q0 -30 12.5 -44.5t42.5 -14.5h45v-87zM320 574h-92v108h92v-108zM186 610l-102 -44v146h102v-102zM42 574h-92v108h92v-108z" />
    <glyph glyph-name="Alpha" unicode="&#x391;" horiz-adv-x="625" 
d="M617 0h-115l-49 143h-281l-49 -143h-115l261 712h87zM423 235l-108 316l-111 -316h219z" />
    <glyph glyph-name="Beta" unicode="&#x392;" horiz-adv-x="663" 
d="M596 201q0 -96 -59 -148.5t-156 -52.5h-288v712h277q99 0 157 -52.5t58 -142.5q0 -54 -28.5 -94.5t-67.5 -56.5q46 -18 76.5 -60t30.5 -105zM477 513q0 49 -31.5 75.5t-84.5 26.5h-160v-204h160q53 0 84.5 26.5t31.5 75.5zM488 206q0 48 -31 78t-86 30h-170v-217h170
q55 0 86 30t31 79z" />
    <glyph glyph-name="Gamma" unicode="&#x393;" horiz-adv-x="566" 
d="M538 615h-337v-615h-108v712h445v-97z" />
    <glyph glyph-name="uni0394" unicode="&#x394;" horiz-adv-x="619" 
d="M613 0h-608l261 712h87zM472 92l-161 459l-162 -459h323z" />
    <glyph glyph-name="Epsilon" unicode="&#x395;" horiz-adv-x="603" 
d="M548 0h-455v712h455v-97h-347v-208h296v-96h-296v-214h347v-97z" />
    <glyph glyph-name="Zeta" unicode="&#x396;" horiz-adv-x="552" 
d="M504 0h-456v93l329 522h-315v97h442v-88l-331 -527h331v-97z" />
    <glyph glyph-name="Eta" unicode="&#x397;" horiz-adv-x="691" 
d="M598 0h-108v311h-289v-311h-108v712h108v-304h289v304h108v-712z" />
    <glyph glyph-name="Theta" unicode="&#x398;" horiz-adv-x="646" 
d="M579 356q0 -127 -11.5 -184t-60.5 -106q-72 -72 -184 -72t-184 72q-48 49 -60 106.5t-12 183.5t12 183.5t60 106.5q72 72 184 72t184 -72q49 -49 60.5 -106t11.5 -184zM217 578q-23 -26 -32 -61.5t-10 -113.5h296q-1 78 -10 113.5t-32 61.5q-41 44 -106 44
q-64 0 -106 -44zM429 135q23 25 32 60t10 112h-296q1 -77 10 -112t32 -60q43 -45 106 -45q64 0 106 45z" />
    <glyph glyph-name="Iota" unicode="&#x399;" horiz-adv-x="294" 
d="M201 0h-108v712h108v-712z" />
    <glyph glyph-name="Kappa" unicode="&#x39a;" horiz-adv-x="658" 
d="M648 0h-127l-200 351l-120 -144v-207h-108v712h108v-358l291 358h132l-231 -279z" />
    <glyph glyph-name="Lambda" unicode="&#x39b;" horiz-adv-x="591" 
d="M577 0h-113l-166 551l-170 -551h-114l233 712h97z" />
    <glyph glyph-name="Mu" unicode="&#x39c;" horiz-adv-x="813" 
d="M721 0h-108v476l-164 -347h-80l-168 347v-476h-108v712h108l208 -443l204 443h108v-712z" />
    <glyph glyph-name="Nu" unicode="&#x39d;" horiz-adv-x="722" 
d="M629 0h-99l-329 501v-501h-108v712h99l329 -500v500h108v-712z" />
    <glyph glyph-name="Xi" unicode="&#x39e;" horiz-adv-x="590" 
d="M535 0h-480v97h186v214h-135v96h135v208h-186v97h480v-97h-186v-208h135v-96h-135v-214h186v-97z" />
    <glyph glyph-name="Omicron" unicode="&#x39f;" horiz-adv-x="646" 
d="M579 356q0 -127 -11.5 -184t-60.5 -106q-72 -72 -184 -72t-184 72q-49 49 -60.5 106t-11.5 184t11.5 184t60.5 106q72 72 184 72t184 -72q49 -49 60.5 -106t11.5 -184zM471 356q0 108 -8 151.5t-34 70.5q-42 44 -106 44t-106 -44q-26 -28 -34 -71.5t-8 -150.5t8 -150
t34 -71q43 -45 106 -45t106 45q26 27 34 70t8 151z" />
    <glyph glyph-name="Pi" unicode="&#x3a0;" horiz-adv-x="684" 
d="M591 0h-108v616h-282v-616h-108v712h498v-712z" />
    <glyph glyph-name="Rho" unicode="&#x3a1;" horiz-adv-x="629" 
d="M591 496q0 -94 -62.5 -154.5t-165.5 -60.5h-162v-281h-108v712h270q103 0 165.5 -61t62.5 -155zM483 496q0 56 -34 87.5t-92 31.5h-156v-238h156q58 0 92 31.5t34 87.5z" />
    <glyph glyph-name="Sigma" unicode="&#x3a3;" horiz-adv-x="554" 
d="M506 615h-310l143 -231l-167 -287h331v-97h-455v90l169 291l-153 250v81h442v-97z" />
    <glyph glyph-name="Tau" unicode="&#x3a4;" horiz-adv-x="560" 
d="M530 615h-196v-615h-108v615h-196v97h500v-97z" />
    <glyph glyph-name="Upsilon" unicode="&#x3a5;" horiz-adv-x="544" 
d="M539 712l-213 -419v-293h-108v293l-213 419h118l149 -313l149 313h118z" />
    <glyph glyph-name="Phi" unicode="&#x3a6;" horiz-adv-x="756" 
d="M701 361q0 -78 -13 -130.5t-56 -95.5q-76 -76 -200 -76v-59h-108v59q-124 0 -200 76q-43 43 -56 95.5t-13 130.5t13 130.5t56 95.5q76 76 200 76v49h108v-49q124 0 200 -76q43 -43 56 -95.5t13 -130.5zM593 361q0 39 -1.5 59.5t-11 50.5t-29.5 51q-40 44 -119 44v-410
q79 0 119 44q20 21 29.5 51t11 50.5t1.5 59.5zM324 156v410q-79 0 -119 -44q-20 -21 -29.5 -51t-11 -50.5t-1.5 -59.5t1.5 -59.5t11 -50.5t29.5 -51q40 -44 119 -44z" />
    <glyph glyph-name="Chi" unicode="&#x3a7;" horiz-adv-x="578" 
d="M568 0h-125l-155 273l-154 -273h-124l220 365l-206 347h124l140 -255l141 255h124l-206 -347z" />
    <glyph glyph-name="Psi" unicode="&#x3a8;" horiz-adv-x="706" 
d="M656 361q0 -56 -12.5 -94t-46.5 -72q-76 -76 -187 -76h-3v-119h-108v119h-3q-111 0 -187 76q-34 34 -46.5 72t-12.5 94v351h108v-351q0 -68 32 -101q41 -44 106 -44h3v496h108v-496h3q65 0 106 44q32 33 32 101v351h108v-351z" />
    <glyph glyph-name="uni03A9" unicode="&#x3a9;" horiz-adv-x="647" 
d="M579 356q0 -144 -25 -200q-16 -34 -45 -60h70v-96h-207v87q49 23 73 60q15 23 20.5 68t5.5 137q0 108 -8 152.5t-34 72.5q-42 45 -106 45t-106 -45q-26 -28 -34 -72.5t-8 -152.5q0 -164 27 -205q24 -38 72 -60v-87h-207v96h71q-31 28 -46 60q-25 56 -25 200
q0 126 12 183.5t60 106.5q72 72 184 72t184 -72q49 -49 60.5 -106t11.5 -184z" />
    <glyph glyph-name="Iotadieresis" unicode="&#x3aa;" horiz-adv-x="294" 
d="M201 0h-108v712h108v-712zM304 786h-92v108h92v-108zM88 786h-92v108h92v-108z" />
    <glyph glyph-name="Upsilondieresis" unicode="&#x3ab;" horiz-adv-x="544" 
d="M539 712l-213 -419v-293h-108v293l-213 419h118l149 -313l149 313h118zM426 786h-92v108h92v-108zM210 786h-92v108h92v-108z" />
    <glyph glyph-name="alphatonos" unicode="&#x3ac;" horiz-adv-x="553" 
d="M472 0h-100v54q-50 -60 -134 -60q-79 0 -124 45q-57 59 -57 215t57 214q45 45 124 45q84 0 134 -60v54h100v-507zM370 254q0 38 -3.5 65t-14 52t-32.5 38t-55 13q-34 0 -56 -13t-32.5 -38t-14 -52t-3.5 -65t3.5 -65t14 -52.5t33 -38.5t55.5 -13t55 13t32.5 38.5t14 52.5
t3.5 65zM322 610l-102 -44v146h102v-102z" />
    <glyph glyph-name="epsilontonos" unicode="&#x3ad;" horiz-adv-x="496" 
d="M468 81q-100 -86 -227 -86q-74 0 -130.5 38.5t-56.5 110.5q0 85 77 117q-29 12 -49.5 40t-20.5 67q0 68 55.5 106.5t128.5 38.5q67 0 105 -13t90 -54l-60 -70q-41 32 -67 41t-61 9q-37 0 -63.5 -18.5t-26.5 -44.5q0 -28 23.5 -47.5t61.5 -19.5h93v-78h-88
q-53 0 -74 -21.5t-21 -45.5q0 -28 26 -48t68 -20q67 0 146 60zM306 610l-102 -44v146h102v-102z" />
    <glyph glyph-name="etatonos" unicode="&#x3ae;" horiz-adv-x="568" 
d="M492 0h-102v309q0 57 -28 85t-74 28t-75.5 -28.5t-29.5 -84.5v-309h-102v507h100v-51q52 57 135 57q77 0 125 -46q51 -50 51 -143v-324zM346 610l-102 -44v146h102v-102z" />
    <glyph glyph-name="iotatonos" unicode="&#x3af;" horiz-adv-x="311" 
d="M280 0h-63q-69 0 -104 39.5t-35 100.5v367h102v-361q0 -30 12.5 -44.5t42.5 -14.5h45v-87zM181 610l-102 -44v146h102v-102z" />
    <glyph glyph-name="upsilondieresistonos" unicode="&#x3b0;" horiz-adv-x="541" 
d="M476 217q0 -112 -54 -167q-56 -56 -152 -56t-152 56q-53 56 -53 167v290h102v-307q0 -58 28.5 -86.5t74.5 -28.5q47 0 75.5 28.5t28.5 86.5v307h102v-290zM457 574h-92v108h92v-108zM323 610l-102 -44v146h102v-102zM179 574h-92v108h92v-108z" />
    <glyph glyph-name="alpha" unicode="&#x3b1;" horiz-adv-x="553" 
d="M472 0h-100v54q-50 -60 -134 -60q-79 0 -124 45q-57 59 -57 215t57 214q45 45 124 45q84 0 134 -60v54h100v-507zM370 254q0 38 -3.5 65t-14 52t-32.5 38t-55 13q-34 0 -56 -13t-32.5 -38t-14 -52t-3.5 -65t3.5 -65t14 -52.5t33 -38.5t55.5 -13t55 13t32.5 38.5t14 52.5
t3.5 65z" />
    <glyph glyph-name="beta" unicode="&#x3b2;" horiz-adv-x="572" 
d="M525 208q0 -86 -58.5 -150t-143.5 -64q-87 0 -142 60v-54h-100v525q0 81 57.5 134t147.5 53q93 0 147.5 -45.5t54.5 -132.5q0 -101 -86 -140q56 -15 89.5 -57t33.5 -129zM426 211q0 39 -11 64.5t-33.5 37.5t-46.5 16.5t-59 4.5h-57v85h59q112 0 112 105q0 53 -28 78
t-74 25q-53 0 -79.5 -32.5t-26.5 -87.5v-296q0 -54 29.5 -90.5t89.5 -36.5q62 0 93.5 37.5t31.5 89.5z" />
    <glyph glyph-name="gamma" unicode="&#x3b3;" horiz-adv-x="471" 
d="M463 507l-178 -495v-217h-100v217l-177 495h108l120 -365l119 365h108z" />
    <glyph glyph-name="delta" unicode="&#x3b4;" horiz-adv-x="538" 
d="M481 270q0 -276 -216 -276q-106 0 -157 72t-51 188q0 100 46.5 167t136.5 67q22 0 34 -2l-164 136v90h338v-90h-201l127 -108q107 -91 107 -244zM377 253q0 164 -102 164q-66 0 -91 -44.5t-25 -118.5q0 -34 3.5 -59.5t14 -52.5t33.5 -41.5t58 -14.5q34 0 57 13.5t33.5 39
t14.5 52t4 62.5z" />
    <glyph glyph-name="epsilon" unicode="&#x3b5;" horiz-adv-x="496" 
d="M468 81q-100 -86 -227 -86q-74 0 -130.5 38.5t-56.5 110.5q0 85 77 117q-29 12 -49.5 40t-20.5 67q0 68 55.5 106.5t128.5 38.5q67 0 105 -13t90 -54l-60 -70q-41 32 -67 41t-61 9q-37 0 -63.5 -18.5t-26.5 -44.5q0 -28 23.5 -47.5t61.5 -19.5h93v-78h-88
q-53 0 -74 -21.5t-21 -45.5q0 -28 26 -48t68 -20q67 0 146 60z" />
    <glyph glyph-name="zeta" unicode="&#x3b6;" horiz-adv-x="489" 
d="M465 -36q0 -22 -7 -43.5t-23 -43t-48.5 -35t-76.5 -13.5v81q58 0 58 51q0 39 -61 39h-66q-193 0 -193 158q0 78 62 148t140 110h-170v91h364v-87h-22q-132 -61 -198.5 -126.5t-66.5 -128.5q0 -40 26 -54.5t87 -14.5h48q71 0 109 -34.5t38 -97.5z" />
    <glyph glyph-name="eta" unicode="&#x3b7;" horiz-adv-x="568" 
d="M492 0h-102v309q0 57 -28 85t-74 28t-75.5 -28.5t-29.5 -84.5v-309h-102v507h100v-51q52 57 135 57q77 0 125 -46q51 -50 51 -143v-324z" />
    <glyph glyph-name="theta" unicode="&#x3b8;" horiz-adv-x="553" 
d="M492 356q0 -75 -2 -115.5t-17 -96t-45 -87.5q-59 -63 -152 -63q-92 0 -151 63q-30 32 -45 87.5t-17 96t-2 115.5t2 115.5t17 96t45 87.5q60 63 151 63q92 0 152 -63q30 -32 45 -87.5t17 -96t2 -115.5zM389 326h-225q0 -85 7 -133t28 -71q32 -37 77 -37q46 0 78 37
q21 23 28 71t7 133zM389 412q0 141 -35 178q-32 37 -78 37q-45 0 -77 -37q-35 -37 -35 -178h225z" />
    <glyph glyph-name="iota" unicode="&#x3b9;" horiz-adv-x="311" 
d="M280 0h-63q-69 0 -104 39.5t-35 100.5v367h102v-361q0 -30 12.5 -44.5t42.5 -14.5h45v-87z" />
    <glyph glyph-name="kappa" unicode="&#x3ba;" horiz-adv-x="548" 
d="M526 0h-126l-142 234l-75 -85v-149h-102v507h102v-234l197 234h124l-176 -199z" />
    <glyph glyph-name="lambda" unicode="&#x3bb;" horiz-adv-x="499" 
d="M507 0h-34q-110 0 -142 100l-82 257l-127 -357h-108l190 487l-27 99q-12 44 -60 44h-30v87h35q110 0 142 -100l154 -484q15 -46 60 -46h29v-87z" />
    <glyph glyph-name="uni03BC" unicode="&#x3bc;" horiz-adv-x="569" 
d="M487 0h-100v51q-53 -57 -134 -57q-45 0 -75 25v-224h-102v712h102v-309q0 -56 28.5 -84.5t74.5 -28.5t75 28.5t29 84.5v309h102v-507z" />
    <glyph glyph-name="nu" unicode="&#x3bd;" horiz-adv-x="471" 
d="M463 507l-186 -507h-83l-186 507h108l120 -357l119 357h108z" />
    <glyph glyph-name="xi" unicode="&#x3be;" horiz-adv-x="516" 
d="M496 617l-63 -63q-72 76 -141 76q-50 0 -80.5 -32t-30.5 -84q0 -49 28 -75.5t81 -26.5h119v-88h-117q-11 0 -29.5 -5t-44 -16.5t-43.5 -39.5t-18 -66q0 -44 29 -72.5t84 -28.5h58q71 0 109 -34.5t38 -97.5q0 -22 -7 -43.5t-23 -43t-48.5 -35t-76.5 -13.5v81q58 0 58 51
q0 39 -61 39h-66q-91 0 -147 52t-56 138q0 63 32.5 113t91.5 69q-43 15 -68 52t-25 90q0 89 60 146t153 57q113 0 204 -100z" />
    <glyph glyph-name="omicron" unicode="&#x3bf;" horiz-adv-x="537" 
d="M480 254q0 -138 -60 -200q-58 -60 -152 -60q-93 0 -151 60q-60 62 -60 200q0 69 13 116.5t47 82.5q58 60 151 60q94 0 152 -60q34 -35 47 -82.5t13 -116.5zM378 254q0 104 -35 139q-29 29 -75 29q-45 0 -74 -29q-35 -35 -35 -139t35 -139q30 -30 74 -30q45 0 75 30
q35 35 35 139z" />
    <glyph glyph-name="pi" unicode="&#x3c0;" horiz-adv-x="572" 
d="M496 0h-100v412h-214v-412h-101v507h415v-507z" />
    <glyph glyph-name="rho" unicode="&#x3c1;" horiz-adv-x="524" 
d="M467 251q0 -50 -9.5 -93t-31 -81t-61.5 -60.5t-95 -22.5q-48 0 -111 54v-253h-102v459q0 79 12 119.5t43 74.5q59 65 147 65q95 0 154 -65q30 -33 42 -75t12 -122zM365 251q0 57 -5 85t-19 48q-26 37 -82 37q-49 0 -75 -37q-14 -20 -19.5 -48t-5.5 -85q0 -91 18 -119
q15 -23 33.5 -33.5t50.5 -10.5q104 0 104 163z" />
    <glyph glyph-name="sigma1" unicode="&#x3c2;" horiz-adv-x="485" 
d="M448 442l-70 -68q-24 26 -45.5 37t-51.5 11q-60 0 -94 -45q-30 -38 -30 -123q0 -71 32.5 -113.5t99.5 -45.5q73 -3 114 -36t41 -95q0 -22 -7 -43.5t-23 -43t-48.5 -35t-76.5 -13.5v81q58 0 58 51q0 22 -15 30.5t-46 9.5q-45 1 -84 14.5t-73 41.5t-54 78.5t-20 118.5
q0 69 19 120.5t51.5 81t71.5 43.5t84 14q100 0 167 -71z" />
    <glyph glyph-name="sigma" unicode="&#x3c3;" horiz-adv-x="561" 
d="M506 416h-87q27 -15 43.5 -59t16.5 -103q0 -79 -13 -120.5t-44 -75.5q-58 -64 -156 -64q-94 0 -154 66q-29 32 -42 74t-13 120q0 79 12 119.5t43 74.5q53 59 154 59h240v-91zM378 253q0 91 -30 134q-24 34 -82 34q-53 0 -79 -36q-28 -40 -28 -131q0 -92 26 -129
q28 -39 81 -39q26 0 49 10.5t34 26.5q29 41 29 130z" />
    <glyph glyph-name="tau" unicode="&#x3c4;" horiz-adv-x="392" 
d="M368 416h-121v-416h-102v416h-121v91h344v-91z" />
    <glyph glyph-name="upsilon" unicode="&#x3c5;" horiz-adv-x="541" 
d="M476 217q0 -112 -54 -167q-56 -56 -152 -56t-152 56q-53 56 -53 167v290h102v-307q0 -58 28.5 -86.5t74.5 -28.5q47 0 75.5 28.5t28.5 86.5v307h102v-290z" />
    <glyph glyph-name="phi" unicode="&#x3c6;" horiz-adv-x="677" 
d="M620 259q0 -126 -53 -195.5t-177 -69.5v-199h-102v199q-119 3 -175 75.5t-56 184.5q0 92 36 154t115 97l32 -87q-47 -24 -63.5 -64.5t-16.5 -102.5q0 -74 28 -118t100 -48v422h104q123 0 175.5 -61.5t52.5 -186.5zM517 262q0 80 -25 116t-102 36v-329q42 1 68.5 14
t38.5 39t16 53.5t4 70.5z" />
    <glyph glyph-name="chi" unicode="&#x3c7;" horiz-adv-x="503" 
d="M481 0h-123l-106 173l-107 -173h-123l174 259l-167 248h123l100 -165l99 165h123l-166 -248z" />
    <glyph glyph-name="psi" unicode="&#x3c8;" horiz-adv-x="679" 
d="M614 254q0 -125 -51 -192.5t-172 -67.5v-199h-104v199q-121 0 -171.5 67.5t-50.5 192.5v253h103v-253q0 -38 3.5 -63t15 -50t36.5 -37.5t64 -12.5v415h104v-415q74 0 97 41t23 122v253h103v-253z" />
    <glyph glyph-name="omega" unicode="&#x3c9;" horiz-adv-x="750" 
d="M693 254q0 -116 -33 -177q-46 -83 -153 -83q-49 0 -77.5 20.5t-54.5 60.5q-26 -40 -54.5 -60.5t-77.5 -20.5q-107 0 -153 83q-33 61 -33 177q0 56 14 110t41 84q59 65 154 65v-96q-56 0 -82 -37q-15 -21 -20 -45t-5 -81q0 -90 20 -128q21 -41 64 -41q58 0 75 76
q6 26 6 65v150h102v-153q0 -37 5 -62q16 -76 76 -76q43 0 64 41q20 38 20 128q0 57 -5 81t-20 45q-26 37 -82 37v96q95 0 154 -65q27 -30 41 -84t14 -110z" />
    <glyph glyph-name="iotadieresis" unicode="&#x3ca;" horiz-adv-x="311" 
d="M280 0h-63q-69 0 -104 39.5t-35 100.5v367h102v-361q0 -30 12.5 -44.5t42.5 -14.5h45v-87zM287 604h-92v108h92v-108zM71 604h-92v108h92v-108z" />
    <glyph glyph-name="upsilondieresis" unicode="&#x3cb;" horiz-adv-x="541" 
d="M476 217q0 -112 -54 -167q-56 -56 -152 -56t-152 56q-53 56 -53 167v290h102v-307q0 -58 28.5 -86.5t74.5 -28.5q47 0 75.5 28.5t28.5 86.5v307h102v-290zM430 604h-92v108h92v-108zM214 604h-92v108h92v-108z" />
    <glyph glyph-name="omicrontonos" unicode="&#x3cc;" horiz-adv-x="537" 
d="M480 254q0 -138 -60 -200q-58 -60 -152 -60q-93 0 -151 60q-60 62 -60 200q0 69 13 116.5t47 82.5q58 60 151 60q94 0 152 -60q34 -35 47 -82.5t13 -116.5zM378 254q0 104 -35 139q-29 29 -75 29q-45 0 -74 -29q-35 -35 -35 -139t35 -139q30 -30 74 -30q45 0 75 30
q35 35 35 139zM321 610l-102 -44v146h102v-102z" />
    <glyph glyph-name="upsilontonos" unicode="&#x3cd;" horiz-adv-x="541" 
d="M476 217q0 -112 -54 -167q-56 -56 -152 -56t-152 56q-53 56 -53 167v290h102v-307q0 -58 28.5 -86.5t74.5 -28.5q47 0 75.5 28.5t28.5 86.5v307h102v-290zM326 610l-102 -44v146h102v-102z" />
    <glyph glyph-name="omegatonos" unicode="&#x3ce;" horiz-adv-x="750" 
d="M693 254q0 -116 -33 -177q-46 -83 -153 -83q-49 0 -77.5 20.5t-54.5 60.5q-26 -40 -54.5 -60.5t-77.5 -20.5q-107 0 -153 83q-33 61 -33 177q0 56 14 110t41 84q59 65 154 65v-96q-56 0 -82 -37q-15 -21 -20 -45t-5 -81q0 -90 20 -128q21 -41 64 -41q58 0 75 76
q6 26 6 65v150h102v-153q0 -37 5 -62q16 -76 76 -76q43 0 64 41q20 38 20 128q0 57 -5 81t-20 45q-26 37 -82 37v96q95 0 154 -65q27 -30 41 -84t14 -110zM426 610l-102 -44v146h102v-102z" />
    <glyph glyph-name="uni03D0" unicode="&#x3d0;" horiz-adv-x="572" 
d="M525 208q0 -86 -58.5 -150t-143.5 -64q-87 0 -140 58v-257h-102v730q0 81 57.5 134t147.5 53q93 0 147.5 -45.5t54.5 -132.5q0 -101 -86 -140q56 -15 89.5 -57t33.5 -129zM426 211q0 39 -11 64.5t-33.5 37.5t-46.5 16.5t-59 4.5h-57v85h59q112 0 112 105q0 53 -28 78
t-74 25q-53 0 -79 -32t-26 -88v-296q0 -54 29 -90.5t89 -36.5q62 0 93.5 37.5t31.5 89.5z" />
    <glyph glyph-name="uni0400" unicode="&#x400;" horiz-adv-x="603" 
d="M549 0h-456v712h456v-97h-348v-208h296v-96h-296v-214h348v-97zM395 781h-77l-111 162h113z" />
    <glyph glyph-name="afii10023" unicode="&#x401;" horiz-adv-x="603" 
d="M549 0h-456v712h456v-97h-348v-208h296v-96h-296v-214h348v-97zM465 786h-92v108h92v-108zM249 786h-92v108h92v-108z" />
    <glyph glyph-name="afii10051" unicode="&#x402;" horiz-adv-x="746" 
d="M670 222q0 -104 -61 -163t-164 -59h-41v94h32q59 0 92.5 32.5t33.5 94.5t-33.5 94.5t-92.5 32.5h-135v-348h-108v616h-166v96h500v-96h-226v-174h144q103 0 164 -58t61 -162z" />
    <glyph glyph-name="afii10052" unicode="&#x403;" horiz-adv-x="565" 
d="M536 615h-330v-615h-108v712h438v-97zM437 943l-111 -162h-77l75 162h113z" />
    <glyph glyph-name="afii10053" unicode="&#x404;" horiz-adv-x="628" 
d="M577 211q-19 -103 -87 -160t-167 -57q-112 0 -184 72q-48 49 -60 106.5t-12 183.5t12 183.5t60 106.5q72 72 184 72q99 0 167 -57t87 -160h-108q-13 57 -50.5 90t-95.5 33q-64 0 -107 -45q-24 -25 -32 -61t-10 -113h243v-94h-243q2 -79 10 -116t32 -62q43 -45 107 -45
q58 0 96 33.5t51 89.5h107z" />
    <glyph glyph-name="afii10054" unicode="&#x405;" horiz-adv-x="590" 
d="M538 203q0 -97 -71 -153t-185 -56q-82 0 -141.5 21.5t-110.5 72.5l71 71q69 -69 183 -69q70 0 108.5 28.5t38.5 81.5q0 50 -28 74q-26 23 -78 30l-84 12q-89 14 -134 57q-53 48 -53 137q0 94 64 151t174 57q71 0 123 -19t98 -62l-68 -68q-58 55 -157 55
q-62 0 -95.5 -30.5t-33.5 -80.5q0 -44 26 -66q27 -24 78 -32l85 -13q88 -14 132 -53q58 -53 58 -146z" />
    <glyph glyph-name="afii10055" unicode="&#x406;" horiz-adv-x="294" 
d="M201 0h-108v712h108v-712z" />
    <glyph glyph-name="afii10056" unicode="&#x407;" horiz-adv-x="294" 
d="M201 0h-108v712h108v-712zM299 791h-92v108h92v-108zM83 791h-92v108h92v-108z" />
    <glyph glyph-name="afii10057" unicode="&#x408;" horiz-adv-x="506" 
d="M423 225q0 -107 -67.5 -169t-169.5 -62q-104 0 -173 69l72 71q22 -22 43.5 -32.5t57.5 -10.5q61 0 95 36.5t34 105.5v479h108v-487z" />
    <glyph glyph-name="afii10058" unicode="&#x409;" horiz-adv-x="1015" 
d="M870 216q0 55 -34 87t-93 32h-156v-238h156q59 0 93 31.5t34 87.5zM169 712h418v-280h166q102 0 163.5 -60t61.5 -156t-62 -156t-163 -60h-274v615h-205v-225q0 -217 -51.5 -303.5t-163.5 -86.5h-45v97h19q32 0 55 12.5t42.5 44.5t29 94.5t9.5 156.5v307z" />
    <glyph glyph-name="afii10059" unicode="&#x40a;" horiz-adv-x="1025" 
d="M988 216q0 -96 -62 -156t-163 -60h-274v335h-288v-335h-108v712h108v-280h288v280h108v-280h166q102 0 163.5 -60t61.5 -156zM880 216q0 55 -34 87t-93 32h-156v-238h156q59 0 93 31.5t34 87.5z" />
    <glyph glyph-name="afii10060" unicode="&#x40b;" horiz-adv-x="746" 
d="M671 0h-109v229q0 55 -34 86.5t-92 31.5h-135v-347h-108v615h-165v97h499v-97h-226v-173h144q101 0 163.5 -58.5t62.5 -154.5v-229z" />
    <glyph glyph-name="afii10061" unicode="&#x40c;" horiz-adv-x="625" 
d="M204 0h-108v712h108v-712zM629 0h-137l-287 373l266 339h133l-274 -336zM467 943l-111 -162h-77l75 162h113z" />
    <glyph glyph-name="uni040D" unicode="&#x40d;" horiz-adv-x="711" 
d="M618 0h-108v517l-319 -517h-98v712h108v-516l318 516h99v-712zM449 781h-77l-111 162h113z" />
    <glyph glyph-name="afii10062" unicode="&#x40e;" horiz-adv-x="564" 
d="M445 888q-4 -70 -46 -102t-108 -32t-108 32t-46 102h81q6 -68 73 -68t73 68h81zM558 712l-255 -596q-50 -116 -150 -116h-74v97h51q59 0 83 57l25 58l-231 500h114l170 -381l153 381h114z" />
    <glyph glyph-name="afii10145" unicode="&#x40f;" horiz-adv-x="691" 
d="M597 0h-199v-160h-105v160h-200v712h108v-615h288v615h108v-712z" />
    <glyph glyph-name="afii10017" unicode="&#x410;" horiz-adv-x="625" 
d="M616 0h-113l-50 143h-281l-50 -143h-114l261 712h87zM424 235l-109 316l-112 -316h221z" />
    <glyph glyph-name="afii10018" unicode="&#x411;" horiz-adv-x="655" 
d="M595 216q0 -97 -61 -156.5t-164 -59.5h-277v712h458v-97h-350v-183h169q103 0 164 -59.5t61 -156.5zM487 216q0 55 -33 87t-91 32h-162v-238h162q58 0 91 31.5t33 87.5z" />
    <glyph glyph-name="afii10019" unicode="&#x412;" horiz-adv-x="663" 
d="M596 200q0 -92 -57.5 -146t-157.5 -54h-288v712h277q97 0 156 -52.5t59 -139.5q0 -108 -96 -155q107 -50 107 -165zM477 513q0 48 -31 75t-85 27h-160v-204h160q54 0 85 27t31 75zM487 206q0 50 -31.5 79t-85.5 29h-169v-217h169q54 0 85.5 29.5t31.5 79.5z" />
    <glyph glyph-name="afii10020" unicode="&#x413;" horiz-adv-x="565" 
d="M536 615h-330v-615h-108v712h438v-97z" />
    <glyph glyph-name="afii10021" unicode="&#x414;" horiz-adv-x="700" 
d="M276 615v-159q0 -227 -70 -359h268v518h-198zM172 712h410v-615h84v-257h-106v160h-432v-160h-105v257h62q87 135 87 405v210z" />
    <glyph glyph-name="afii10022" unicode="&#x415;" horiz-adv-x="603" 
d="M549 0h-456v712h456v-97h-348v-208h296v-96h-296v-214h348v-97z" />
    <glyph glyph-name="afii10024" unicode="&#x416;" horiz-adv-x="922" 
d="M926 0h-135l-274 373l252 339h131l-264 -336zM132 0h-136l291 376l-266 336h132l253 -339zM516 0h-109v712h109v-712z" />
    <glyph glyph-name="afii10025" unicode="&#x417;" horiz-adv-x="611" 
d="M298 -6q-97 0 -165 57t-86 160h108q13 -56 50.5 -89t94.5 -33q60 0 97.5 31.5t37.5 84.5q0 56 -32.5 85t-93.5 29h-91v90h93q54 0 83.5 28.5t29.5 80.5q0 50 -33 78t-90 28t-94 -33.5t-50 -89.5h-109q18 103 86.5 160t167.5 57q101 0 166 -53t65 -140q0 -110 -98 -157
q109 -44 109 -167q0 -93 -69.5 -150t-176.5 -57z" />
    <glyph glyph-name="afii10026" unicode="&#x418;" horiz-adv-x="711" 
d="M618 0h-108v517l-319 -517h-98v712h108v-516l318 516h99v-712z" />
    <glyph glyph-name="afii10027" unicode="&#x419;" horiz-adv-x="711" 
d="M510 888q-4 -70 -46 -102t-108 -32t-108 32t-46 102h81q6 -68 73 -68t73 68h81zM618 0h-108v517l-319 -517h-98v712h108v-516l318 516h99v-712z" />
    <glyph glyph-name="afii10028" unicode="&#x41a;" horiz-adv-x="625" 
d="M204 0h-108v712h108v-712zM629 0h-137l-287 373l266 339h133l-274 -336z" />
    <glyph glyph-name="afii10029" unicode="&#x41b;" horiz-adv-x="681" 
d="M587 0h-108v615h-205v-225q0 -217 -51.5 -303.5t-163.5 -86.5h-45v97h19q32 0 55 12.5t42.5 44.5t29 94.5t9.5 156.5v307h418v-712z" />
    <glyph glyph-name="afii10030" unicode="&#x41c;" horiz-adv-x="813" 
d="M721 0h-109v476l-164 -347h-80l-167 347v-476h-108v712h107l208 -443l205 443h108v-712z" />
    <glyph glyph-name="afii10031" unicode="&#x41d;" horiz-adv-x="690" 
d="M598 0h-109v311h-288v-311h-108v712h108v-305h288v305h109v-712z" />
    <glyph glyph-name="afii10032" unicode="&#x41e;" horiz-adv-x="646" 
d="M579 356q0 -127 -11.5 -184t-60.5 -106q-72 -72 -184 -72t-184 72q-49 49 -60.5 106t-11.5 184t11.5 184t60.5 106q72 72 184 72t184 -72q49 -49 60.5 -106t11.5 -184zM471 356q0 108 -8 151.5t-34 70.5q-42 44 -106 44t-106 -44q-26 -28 -34 -71.5t-8 -150.5t8 -150
t34 -71q43 -45 106 -45t106 45q26 27 34 70t8 151z" />
    <glyph glyph-name="afii10033" unicode="&#x41f;" horiz-adv-x="690" 
d="M597 0h-108v615h-288v-615h-108v712h504v-712z" />
    <glyph glyph-name="afii10034" unicode="&#x420;" horiz-adv-x="629" 
d="M591 496q0 -94 -62.5 -154.5t-165.5 -60.5h-162v-281h-108v712h270q103 0 165.5 -61t62.5 -155zM483 496q0 56 -34 87.5t-92 31.5h-156v-238h156q58 0 92 31.5t34 87.5z" />
    <glyph glyph-name="afii10035" unicode="&#x421;" horiz-adv-x="628" 
d="M577 213q-18 -104 -86.5 -161.5t-167.5 -57.5q-112 0 -184 72q-48 49 -60 106.5t-12 183.5t12 183.5t60 106.5q72 72 184 72q100 0 167.5 -57.5t86.5 -161.5h-110q-12 57 -49 90t-95 33q-64 0 -105 -44q-27 -28 -35 -71.5t-8 -150.5t8 -150.5t35 -71.5q41 -44 105 -44
q58 0 95.5 33t50.5 90h108z" />
    <glyph glyph-name="afii10036" unicode="&#x422;" horiz-adv-x="560" 
d="M530 615h-196v-615h-108v615h-196v97h500v-97z" />
    <glyph glyph-name="afii10037" unicode="&#x423;" horiz-adv-x="564" 
d="M558 712l-255 -596q-50 -116 -150 -116h-74v97h51q59 0 83 57l25 58l-231 500h114l170 -381l153 381h114z" />
    <glyph glyph-name="afii10038" unicode="&#x424;" horiz-adv-x="796" 
d="M452 580v-405q101 4 143.5 54.5t42.5 148.5q0 100 -41.5 149t-144.5 53zM344 175v405q-103 -4 -144.5 -53t-41.5 -149q0 -98 42.5 -148.5t143.5 -54.5zM452 -5h-108v89q-153 7 -223.5 81.5t-70.5 217.5q0 139 72 211t222 79v69h108v-69q150 -7 222 -79t72 -211
q0 -143 -70.5 -217.5t-223.5 -81.5v-89z" />
    <glyph glyph-name="afii10039" unicode="&#x425;" horiz-adv-x="578" 
d="M568 0h-125l-155 273l-155 -273h-123l219 365l-205 347h124l140 -255l141 255h124l-206 -347z" />
    <glyph glyph-name="afii10040" unicode="&#x426;" horiz-adv-x="715" 
d="M681 -160h-105v160h-483v712h108v-615h288v615h108v-615h84v-257z" />
    <glyph glyph-name="afii10041" unicode="&#x427;" horiz-adv-x="647" 
d="M554 0h-108v279q-118 -23 -191 -23q-78 0 -131.5 43.5t-53.5 131.5v281h109v-255q0 -104 109 -104q66 0 158 20v339h108v-712z" />
    <glyph glyph-name="afii10042" unicode="&#x428;" horiz-adv-x="992" 
d="M900 0h-807v712h108v-615h241v615h109v-615h240v615h109v-712z" />
    <glyph glyph-name="afii10043" unicode="&#x429;" horiz-adv-x="1016" 
d="M983 -160h-106v160h-784v712h108v-615h241v615h109v-615h240v615h109v-615h83v-257z" />
    <glyph glyph-name="afii10044" unicode="&#x42a;" horiz-adv-x="727" 
d="M690 216q0 -96 -62.5 -156t-162.5 -60h-274v615h-161v97h270v-280h165q101 0 163 -60t62 -156zM582 216q0 55 -34 87t-92 32h-156v-238h156q58 0 92 32t34 87z" />
    <glyph glyph-name="afii10045" unicode="&#x42b;" horiz-adv-x="879" 
d="M786 0h-108v712h108v-712zM592 216q0 -96 -62.5 -156t-163.5 -60h-273v712h108v-280h165q102 0 164 -60t62 -156zM483 216q0 55 -33.5 87t-92.5 32h-156v-238h156q59 0 92.5 31.5t33.5 87.5z" />
    <glyph glyph-name="afii10046" unicode="&#x42c;" horiz-adv-x="629" 
d="M592 216q0 -96 -62.5 -156t-163.5 -60h-273v712h108v-280h165q102 0 164 -60t62 -156zM483 216q0 55 -33.5 87t-92.5 32h-156v-238h156q59 0 92.5 31.5t33.5 87.5z" />
    <glyph glyph-name="afii10047" unicode="&#x42d;" horiz-adv-x="628" 
d="M50 211h107q13 -56 51 -89.5t96 -33.5q64 0 107 45q24 25 32 62t10 116h-243v94h243q-2 77 -10 113t-32 61q-43 45 -107 45q-58 0 -95.5 -33t-50.5 -90h-108q19 103 87 160t167 57q112 0 184 -72q48 -49 60 -106.5t12 -183.5t-12 -183.5t-60 -106.5q-72 -72 -184 -72
q-99 0 -167.5 57t-86.5 160z" />
    <glyph glyph-name="afii10048" unicode="&#x42e;" horiz-adv-x="909" 
d="M842 356q0 -127 -11.5 -184t-60.5 -106q-72 -72 -184 -72t-184 72q-44 44 -57.5 95.5t-14.5 149.5h-129v-311h-108v712h108v-304h129q1 93 14.5 143.5t57.5 94.5q72 72 184 72t184 -72q49 -49 60.5 -106t11.5 -184zM734 356q0 108 -8 151.5t-34 70.5q-42 44 -106 44
t-106 -44q-26 -28 -34 -71.5t-8 -150.5t8 -150t34 -71q43 -45 106 -45t106 45q26 27 34 70t8 151z" />
    <glyph glyph-name="afii10049" unicode="&#x42f;" horiz-adv-x="652" 
d="M310 280l-138 -280h-128l155 300q-64 22 -100.5 73.5t-36.5 122.5q0 98 62.5 157t164.5 59h271v-712h-109v280h-141zM451 377v239h-155q-59 0 -92.5 -32t-33.5 -87t34 -87.5t92 -32.5h155z" />
    <glyph glyph-name="afii10065" unicode="&#x430;" horiz-adv-x="530" 
d="M454 0h-100v46q-28 -28 -58.5 -40t-76.5 -12q-90 0 -136 46q-40 42 -40 109q0 66 45.5 106t130.5 40h133v36q0 49 -26 72t-85 23q-40 0 -64.5 -11.5t-46.5 -38.5l-66 63q35 41 75.5 57.5t105.5 16.5q209 0 209 -174v-339zM352 183v41h-117q-93 0 -93 -73q0 -72 96 -72
q61 0 92 29q22 21 22 75z" />
    <glyph glyph-name="afii10066" unicode="&#x431;" horiz-adv-x="541" 
d="M277 86q48 0 75 30q32 38 32 135q0 101 -31 136q-29 32 -76 32q-49 0 -77 -32q-34 -39 -34 -134q0 -96 36 -137q28 -30 75 -30zM278 -6q-64 0 -112 27t-71 78q-30 64 -30 224q0 166 14 228t62 103q31 27 81.5 41t93 17t129.5 6v-90q-15 -1 -54 -3t-64 -4t-57 -10t-52 -22
q-35 -23 -48 -57.5t-13 -91.5q16 30 54.5 48t84.5 18q78 0 124 -43q66 -62 66 -208q0 -141 -62 -204q-55 -57 -146 -57z" />
    <glyph glyph-name="afii10067" unicode="&#x432;" horiz-adv-x="545" 
d="M485 143q0 -66 -41 -104.5t-112 -38.5h-251v507h243q70 0 111.5 -37t41.5 -99q0 -76 -71 -109q79 -36 79 -119zM377 364q0 30 -19.5 46.5t-55.5 16.5h-120v-128h120q75 0 75 65zM385 150q0 33 -20.5 51.5t-56.5 18.5h-126v-140h126q36 0 56.5 19t20.5 51z" />
    <glyph glyph-name="afii10068" unicode="&#x433;" horiz-adv-x="426" 
d="M414 418h-227v-418h-102v507h329v-89z" />
    <glyph glyph-name="afii10069" unicode="&#x434;" horiz-adv-x="568" 
d="M224 418v-81q0 -145 -48 -248h191v329h-143zM127 507h342v-418h70v-219h-98v130h-329v-130h-97v219h54q29 57 43.5 119.5t14.5 169.5v129z" />
    <glyph glyph-name="afii10070" unicode="&#x435;" horiz-adv-x="539" 
d="M485 224h-329q0 -67 33.5 -104.5t95.5 -37.5q41 0 68 12t55 40l65 -61q-41 -41 -83.5 -60t-106.5 -19q-104 0 -166 62t-62 198q0 122 58 190.5t157 68.5q101 0 158 -67t57 -179v-43zM384 295q-3 45 -14 69q-29 64 -100 64q-72 0 -101 -64q-12 -26 -13 -69h228z" />
    <glyph glyph-name="afii10072" unicode="&#x436;" horiz-adv-x="741" 
d="M741 0h-123l-195 264l184 243h119l-190 -238zM422 0h-103v507h103v-507zM123 0h-123l206 269l-190 238h119l183 -243z" />
    <glyph glyph-name="afii10073" unicode="&#x437;" horiz-adv-x="489" 
d="M430 147q0 -68 -56.5 -110t-136.5 -42q-134 0 -213 72l61 64q56 -50 137 -50q43 0 75.5 19.5t32.5 52.5q0 68 -88 68h-75v76h74q37 0 59 18t22 50q0 31 -26.5 47.5t-72.5 16.5q-69 0 -122 -38l-57 65q74 57 195 57q78 0 130.5 -36.5t52.5 -100.5q0 -37 -20 -67t-54 -44
q37 -14 59.5 -45.5t22.5 -72.5z" />
    <glyph glyph-name="afii10074" unicode="&#x438;" horiz-adv-x="583" 
d="M502 0h-102v349l-217 -349h-102v507h102v-344l217 344h102v-507z" />
    <glyph glyph-name="afii10075" unicode="&#x439;" horiz-adv-x="583" 
d="M446 713q-3 -70 -45.5 -102.5t-108.5 -32.5t-108 32.5t-46 102.5h81q6 -68 73 -68t73 68h81zM502 0h-102v349l-217 -349h-102v507h102v-344l217 344h102v-507z" />
    <glyph glyph-name="afii10076" unicode="&#x43a;" horiz-adv-x="517" 
d="M186 0h-103v507h103v-507zM517 0h-125l-205 264l193 243h122l-202 -238z" />
    <glyph glyph-name="afii10077" unicode="&#x43b;" horiz-adv-x="556" 
d="M474 0h-102v418h-147v-147q0 -79 -11 -133t-33 -83.5t-50.5 -42t-67.5 -12.5h-48v90h16q16 0 27 2.5t25.5 14t23 32t14.5 61t6 96.5v211h347v-507z" />
    <glyph glyph-name="afii10078" unicode="&#x43c;" horiz-adv-x="667" 
d="M585 0h-102v325l-117 -232h-64l-119 232v-325h-102v507h101l152 -302l151 302h100v-507z" />
    <glyph glyph-name="afii10079" unicode="&#x43d;" horiz-adv-x="568" 
d="M487 0h-102v216h-202v-216h-102v507h102v-202h202v202h102v-507z" />
    <glyph glyph-name="afii10080" unicode="&#x43e;" horiz-adv-x="537" 
d="M480 254q0 -138 -60 -200q-58 -60 -152 -60q-93 0 -151 60q-60 62 -60 200q0 69 13 116.5t47 82.5q58 60 151 60q94 0 152 -60q34 -35 47 -82.5t13 -116.5zM378 254q0 104 -35 139q-29 29 -75 29q-45 0 -74 -29q-35 -35 -35 -139t35 -139q30 -30 74 -30q45 0 75 30
q35 35 35 139z" />
    <glyph glyph-name="afii10081" unicode="&#x43f;" horiz-adv-x="563" 
d="M487 0h-102v418h-202v-418h-102v507h406v-507z" />
    <glyph glyph-name="afii10082" unicode="&#x440;" horiz-adv-x="553" 
d="M496 254q0 -157 -57 -215q-45 -45 -123 -45q-85 0 -133 58v-257h-102v712h100v-54q50 60 134 60q79 0 124 -45q57 -58 57 -214zM394 254q0 38 -3.5 65t-14 52t-32.5 38t-55 13q-34 0 -56 -13t-32.5 -38t-14 -52t-3.5 -65t3.5 -65t14 -52.5t33 -38.5t55.5 -13t55 13
t32.5 38.5t14 52.5t3.5 65z" />
    <glyph glyph-name="afii10083" unicode="&#x441;" horiz-adv-x="485" 
d="M448 66q-68 -72 -167 -72q-45 0 -84 14.5t-71.5 44t-51.5 81t-19 120.5t19 120.5t51.5 81t71.5 43.5t84 14q100 0 167 -71l-70 -68q-24 26 -45.5 37t-51.5 11q-60 0 -94 -45q-30 -38 -30 -123q0 -86 30 -124q34 -45 94 -45q30 0 51.5 11t45.5 37z" />
    <glyph glyph-name="afii10084" unicode="&#x442;" horiz-adv-x="440" 
d="M429 418h-155v-418h-102v418h-161v89h418v-89z" />
    <glyph glyph-name="afii10085" unicode="&#x443;" horiz-adv-x="471" 
d="M464 507l-224 -608q-36 -100 -141 -100h-41v92h26q32 0 47 10.5t26 42.5l28 80l-178 483h109l121 -358l118 358h109z" />
    <glyph glyph-name="afii10086" unicode="&#x444;" horiz-adv-x="706" 
d="M554 255q0 163 -150 167v-336q74 1 112 45t38 124zM404 -205h-102v200q-119 6 -185.5 71.5t-66.5 189.5q0 123 65.5 186.5t186.5 70.5v199h102v-199q121 -7 186.5 -70.5t65.5 -186.5q0 -124 -66.5 -189.5t-185.5 -71.5v-200zM152 255q0 -80 38 -124t112 -45v336
q-150 -4 -150 -167z" />
    <glyph glyph-name="afii10087" unicode="&#x445;" horiz-adv-x="503" 
d="M481 0h-122l-107 173l-107 -173h-123l174 259l-167 248h123l100 -165l100 165h122l-167 -248z" />
    <glyph glyph-name="afii10088" unicode="&#x446;" horiz-adv-x="587" 
d="M559 -130h-98v130h-380v507h102v-418h202v418h102v-418h72v-219z" />
    <glyph glyph-name="afii10089" unicode="&#x447;" horiz-adv-x="536" 
d="M455 0h-102v187q-80 -16 -145 -16t-104.5 36.5t-39.5 104.5v195h102v-170q0 -75 74 -75q46 0 113 12v233h102v-507z" />
    <glyph glyph-name="afii10090" unicode="&#x448;" horiz-adv-x="812" 
d="M730 0h-649v507h102v-418h172v418h102v-418h171v418h102v-507z" />
    <glyph glyph-name="afii10091" unicode="&#x449;" horiz-adv-x="830" 
d="M802 -130h-97v130h-624v507h102v-418h172v418h102v-418h171v418h102v-418h72v-219z" />
    <glyph glyph-name="afii10092" unicode="&#x44a;" horiz-adv-x="578" 
d="M541 158q0 -71 -45.5 -114.5t-119.5 -43.5h-235v418h-129v89h231v-191h133q74 0 119.5 -43.5t45.5 -114.5zM440 158q0 35 -21 54.5t-59 19.5h-117v-149h117q38 0 59 20t21 55z" />
    <glyph glyph-name="afii10093" unicode="&#x44b;" horiz-adv-x="741" 
d="M653 0h-102v507h102v-507zM481 158q0 -70 -45.5 -114t-119.5 -44h-235v507h102v-191h133q74 0 119.5 -44t45.5 -114zM380 158q0 35 -21.5 54.5t-59.5 19.5h-116v-149h116q38 0 59.5 20t21.5 55z" />
    <glyph glyph-name="afii10094" unicode="&#x44c;" horiz-adv-x="518" 
d="M481 158q0 -71 -45.5 -114.5t-118.5 -43.5h-236v507h102v-191h134q73 0 118.5 -43.5t45.5 -114.5zM380 158q0 35 -21 54.5t-59 19.5h-117v-149h117q38 0 59 20t21 55z" />
    <glyph glyph-name="afii10095" unicode="&#x44d;" horiz-adv-x="485" 
d="M430 256q0 -125 -59.5 -193.5t-168.5 -68.5q-53 0 -89.5 16t-75.5 55l68 67q27 -27 48 -38t51 -11q59 0 90 38.5t34 101.5h-177v72h177q-6 60 -37.5 94.5t-87.5 34.5q-49 0 -98 -49l-68 66q40 39 76.5 55.5t88.5 16.5q108 0 168 -68t60 -189z" />
    <glyph glyph-name="afii10096" unicode="&#x44e;" horiz-adv-x="752" 
d="M695 254q0 -138 -60 -200q-58 -60 -152 -60q-93 0 -151 60q-54 56 -59 162h-90v-216h-102v507h102v-204h90q8 98 59 150q58 60 151 60q94 0 152 -60q34 -35 47 -82.5t13 -116.5zM593 254q0 104 -35 139q-29 29 -75 29q-45 0 -74 -29q-35 -35 -35 -139t35 -139
q30 -30 74 -30q45 0 75 30q35 35 35 139z" />
    <glyph glyph-name="afii10097" unicode="&#x44f;" horiz-adv-x="531" 
d="M349 271v154h-119q-39 0 -61 -21t-22 -57t22 -56t61 -20h119zM159 0h-117l110 208q-49 14 -77 52t-28 92q0 69 45.5 112t118.5 43h239v-507h-102v189h-93z" />
    <glyph glyph-name="uni0450" unicode="&#x450;" horiz-adv-x="539" 
d="M485 224h-329q0 -67 33.5 -104.5t95.5 -37.5q41 0 68 12t55 40l65 -61q-41 -41 -83.5 -60t-106.5 -19q-104 0 -166 62t-62 198q0 122 58 190.5t157 68.5q101 0 158 -67t57 -179v-43zM384 295q-3 45 -14 69q-29 64 -100 64q-72 0 -101 -64q-12 -26 -13 -69h228zM325 599
h-77l-111 162h113z" />
    <glyph glyph-name="afii10071" unicode="&#x451;" horiz-adv-x="539" 
d="M485 224h-329q0 -67 33.5 -104.5t95.5 -37.5q41 0 68 12t55 40l65 -61q-41 -41 -83.5 -60t-106.5 -19q-104 0 -166 62t-62 198q0 122 58 190.5t157 68.5q101 0 158 -67t57 -179v-43zM384 295q-3 45 -14 69q-29 64 -100 64q-72 0 -101 -64q-12 -26 -13 -69h228zM426 604
h-92v108h92v-108zM210 604h-92v108h92v-108z" />
    <glyph glyph-name="afii10099" unicode="&#x452;" horiz-adv-x="568" 
d="M492 291v-338q0 -71 -38.5 -116t-121.5 -45h-54v87h36q36 0 56 23t20 57v317q0 56 -28 84.5t-74 28.5t-75.5 -28.5t-29.5 -84.5v-276h-102v538h-52v78h52v96h102v-96h238v-78h-238v-115q51 57 133 57q77 0 125 -46q51 -50 51 -143z" />
    <glyph glyph-name="afii10100" unicode="&#x453;" horiz-adv-x="426" 
d="M414 418h-227v-418h-102v507h329v-89zM357 761l-111 -162h-77l75 162h113z" />
    <glyph glyph-name="afii10101" unicode="&#x454;" horiz-adv-x="485" 
d="M448 65q-39 -39 -76 -55t-90 -16q-108 0 -167.5 68.5t-59.5 193.5q0 121 60 189t167 68q53 0 89 -16.5t77 -55.5l-68 -66q-26 26 -47.5 37.5t-51.5 11.5q-56 0 -87 -34.5t-36 -94.5h181v-72h-182q4 -64 34.5 -102t89.5 -38q31 0 52 11.5t47 37.5z" />
    <glyph glyph-name="afii10102" unicode="&#x455;" horiz-adv-x="499" 
d="M456 155q0 -77 -58.5 -119t-152.5 -42q-139 0 -213 73l67 67q52 -53 146 -53q49 0 80 18t31 52q0 54 -68 60l-81 7q-150 13 -150 140q0 72 54.5 113.5t136.5 41.5q123 0 188 -57l-64 -65q-44 37 -125 37q-44 0 -68 -18t-24 -47q0 -52 70 -58l80 -7q151 -13 151 -143z" />
    <glyph glyph-name="afii10103" unicode="&#x456;" horiz-adv-x="264" 
d="M183 0h-102v507h102v-507zM186 607h-108v108h108v-108z" />
    <glyph glyph-name="afii10104" unicode="&#x457;" horiz-adv-x="264" 
d="M183 0h-102v507h102v-507zM286 604h-92v108h92v-108zM70 604h-92v108h92v-108z" />
    <glyph glyph-name="afii10105" unicode="&#x458;" horiz-adv-x="264" 
d="M183 -67q0 -61 -35 -100.5t-104 -39.5h-63v87h45q30 0 42.5 14.5t12.5 44.5v568h102v-574zM186 607h-108v108h108v-108z" />
    <glyph glyph-name="afii10106" unicode="&#x459;" horiz-adv-x="812" 
d="M675 158q0 35 -21.5 54.5t-59.5 19.5h-118v-149h118q38 0 59.5 20t21.5 55zM127 507h349v-191h135q74 0 119.5 -44t45.5 -114t-45.5 -114t-119.5 -44h-236v418h-150v-147q0 -79 -11 -133t-33 -83.5t-50.5 -42t-67.5 -12.5h-48v90h16q16 0 27 2.5t25.5 14t23 32t14.5 61
t6 96.5v211z" />
    <glyph glyph-name="afii10107" unicode="&#x45a;" horiz-adv-x="822" 
d="M786 158q0 -70 -45.5 -114t-119.5 -44h-236v226h-202v-226h-102v507h102v-191h202v191h102v-191h134q74 0 119.5 -43.5t45.5 -114.5zM684 158q0 35 -20.5 54.5t-59.5 19.5h-118v-149h118q39 0 59.5 19.5t20.5 55.5z" />
    <glyph glyph-name="afii10108" unicode="&#x45b;" horiz-adv-x="568" 
d="M492 0h-102v276q0 56 -28 84.5t-74 28.5t-75.5 -28.5t-29.5 -84.5v-276h-102v538h-52v78h52v96h102v-96h238v-78h-238v-115q51 57 133 57q77 0 125 -46q51 -50 51 -143v-291z" />
    <glyph glyph-name="afii10109" unicode="&#x45c;" horiz-adv-x="517" 
d="M186 0h-103v507h103v-507zM517 0h-125l-205 264l193 243h122l-202 -238zM402 761l-111 -162h-77l75 162h113z" />
    <glyph glyph-name="uni045D" unicode="&#x45d;" horiz-adv-x="583" 
d="M502 0h-102v349l-217 -349h-102v507h102v-344l217 344h102v-507zM385 599h-77l-111 162h113z" />
    <glyph glyph-name="afii10110" unicode="&#x45e;" horiz-adv-x="471" 
d="M464 507l-224 -608q-36 -100 -141 -100h-41v92h26q32 0 47 10.5t26 42.5l28 80l-178 483h109l121 -358l118 358h109zM404 713q-3 -70 -45.5 -102.5t-108.5 -32.5t-108 32.5t-46 102.5h81q6 -68 73 -68t73 68h81z" />
    <glyph glyph-name="afii10193" unicode="&#x45f;" horiz-adv-x="568" 
d="M487 0h-155v-130h-97v130h-154v507h102v-418h202v418h102v-507z" />
    <glyph glyph-name="afii10146" unicode="&#x462;" horiz-adv-x="648" 
d="M611 216q0 -96 -62.5 -156t-163.5 -60h-273v542h-74v83h74v87h108v-87h138v-83h-138v-110h165q102 0 164 -60t62 -156zM502 216q0 55 -33.5 87t-92.5 32h-156v-238h156q59 0 92.5 31.5t33.5 87.5z" />
    <glyph glyph-name="afii10194" unicode="&#x463;" horiz-adv-x="536" 
d="M499 158q0 -71 -45.5 -114.5t-118.5 -43.5h-236v400h-59v73h59v34h102v-34h69v-73h-69v-84h134q73 0 118.5 -43.5t45.5 -114.5zM398 158q0 35 -21 54.5t-59 19.5h-117v-149h117q38 0 59 20t21 55z" />
    <glyph glyph-name="afii10147" unicode="&#x472;" horiz-adv-x="646" 
d="M579 356q0 -127 -11.5 -184t-60.5 -106q-72 -72 -184 -72t-184 72q-48 49 -60 106.5t-12 183.5t12 183.5t60 106.5q72 72 184 72t184 -72q49 -49 60.5 -106t11.5 -184zM217 578q-23 -26 -32 -61.5t-10 -113.5h296q-1 78 -10 113.5t-32 61.5q-41 44 -106 44
q-64 0 -106 -44zM429 135q23 25 32 60t10 112h-296q1 -77 10 -112t32 -60q43 -45 106 -45q64 0 106 45z" />
    <glyph glyph-name="afii10195" unicode="&#x473;" horiz-adv-x="537" 
d="M480 254q0 -138 -60 -200q-58 -60 -152 -60q-93 0 -151 60q-60 62 -60 200q0 69 13 116.5t47 82.5q58 60 151 60q94 0 152 -60q34 -35 47 -82.5t13 -116.5zM343 115q30 30 34 109h-218q4 -79 35 -109q30 -30 74 -30q45 0 75 30zM194 393q-31 -31 -34 -98h217
q-5 69 -34 98t-75 29q-45 0 -74 -29z" />
    <glyph glyph-name="afii10148" unicode="&#x474;" horiz-adv-x="564" 
d="M508 558l-185 -558h-84l-234 712h112l164 -518l127 402q16 52 55 84t95 32h74v-97h-41q-64 0 -83 -57z" />
    <glyph glyph-name="afii10196" unicode="&#x475;" horiz-adv-x="471" 
d="M410 362l-133 -362h-83l-186 507h108l120 -357l86 257q33 100 141 100h41v-92h-21q-32 0 -46.5 -10.5t-26.5 -42.5z" />
    <glyph glyph-name="afii10050" unicode="&#x490;" horiz-adv-x="565" 
d="M536 615h-330v-615h-108v712h333v170h105v-267z" />
    <glyph glyph-name="afii10098" unicode="&#x491;" horiz-adv-x="426" 
d="M414 418h-227v-418h-102v507h231v140h98v-229z" />
    <glyph glyph-name="uni0492" unicode="&#x492;" horiz-adv-x="579" 
d="M550 615h-330v-214h138v-83h-138v-318h-108v318h-74v83h74v311h438v-97z" />
    <glyph glyph-name="uni0493" unicode="&#x493;" horiz-adv-x="426" 
d="M414 418h-227v-103h69v-73h-69v-242h-102v242h-59v73h59v192h329v-89z" />
    <glyph glyph-name="uni0496" unicode="&#x496;" horiz-adv-x="920" 
d="M899 712l-264 -336l215 -279h75v-257h-106v160h-29l-274 373l252 339h131zM131 0h-136l291 376l-266 336h132l253 -339zM515 0h-109v712h109v-712z" />
    <glyph glyph-name="uni0497" unicode="&#x497;" horiz-adv-x="739" 
d="M725 507l-190 -238l137 -180h68v-219h-97v130h-26l-195 264l184 243h119zM122 0h-123l206 269l-190 238h119l183 -243zM421 0h-103v507h103v-507z" />
    <glyph glyph-name="uni049A" unicode="&#x49a;" horiz-adv-x="624" 
d="M604 712l-274 -336l222 -279h77v-257h-106v160h-31l-287 373l266 339h133zM204 0h-108v712h108v-712z" />
    <glyph glyph-name="uni049B" unicode="&#x49b;" horiz-adv-x="516" 
d="M502 507l-202 -238l145 -180h72v-219h-97v130h-28l-205 264l193 243h122zM186 0h-103v507h103v-507z" />
    <glyph glyph-name="uni049C" unicode="&#x49c;" horiz-adv-x="691" 
d="M695 0h-134l-208 317h-28v-146h-78v146h-43v-317h-108v712h108v-299h43v146h78v-146h27l188 299h129l-227 -344z" />
    <glyph glyph-name="uni049D" unicode="&#x49d;" horiz-adv-x="582" 
d="M582 0h-125l-130 217h-28v-123h-76v123h-38v-217h-102v507h102v-205h38v123h76v-123h25l121 205h121l-151 -238z" />
    <glyph glyph-name="uni04A2" unicode="&#x4a2;" horiz-adv-x="690" 
d="M598 712v-615h51v-257h-106v160h-54v311h-288v-311h-108v712h108v-305h288v305h109z" />
    <glyph glyph-name="uni04A3" unicode="&#x4a3;" horiz-adv-x="568" 
d="M487 507v-418h46v-219h-97v130h-51v216h-202v-216h-102v507h102v-202h202v202h102z" />
    <glyph glyph-name="uni04AE" unicode="&#x4ae;" horiz-adv-x="544" 
d="M539 712l-213 -419v-293h-108v293l-213 419h118l149 -313l149 313h118z" />
    <glyph glyph-name="uni04AF" unicode="&#x4af;" horiz-adv-x="471" 
d="M463 507l-178 -495v-217h-100v217l-177 495h108l120 -365l119 365h108z" />
    <glyph glyph-name="uni04B0" unicode="&#x4b0;" horiz-adv-x="544" 
d="M539 712l-213 -419h106v-83h-106v-210h-108v210h-106v83h106l-213 419h118l149 -313l149 313h118z" />
    <glyph glyph-name="uni04B1" unicode="&#x4b1;" horiz-adv-x="471" 
d="M463 507l-178 -495h65v-73h-65v-144h-100v144h-65v73h65l-177 495h108l120 -365l119 365h108z" />
    <glyph glyph-name="uni04B2" unicode="&#x4b2;" horiz-adv-x="578" 
d="M553 712l-206 -347l162 -268h59v-257h-106v160h-19l-155 273l-155 -273h-123l219 365l-205 347h124l140 -255l141 255h124z" />
    <glyph glyph-name="uni04B3" unicode="&#x4b3;" horiz-adv-x="503" 
d="M474 507l-167 -248l114 -170h60v-219h-97v130h-25l-107 173l-107 -173h-123l174 259l-167 248h123l100 -165l100 165h122z" />
    <glyph glyph-name="uni04B6" unicode="&#x4b6;" horiz-adv-x="647" 
d="M554 712v-615h52v-257h-106v160h-54v279q-118 -23 -191 -23q-78 0 -131.5 43.5t-53.5 131.5v281h109v-255q0 -104 109 -104q66 0 158 20v339h108z" />
    <glyph glyph-name="uni04B7" unicode="&#x4b7;" horiz-adv-x="537" 
d="M455 507v-418h46v-219h-97v130h-51v187q-80 -16 -145 -16t-104.5 36.5t-39.5 104.5v195h102v-170q0 -75 74 -75q46 0 113 12v233h102z" />
    <glyph glyph-name="uni04B8" unicode="&#x4b8;" horiz-adv-x="656" 
d="M358 109h-83v147h-15q-80 0 -135 43.5t-55 131.5v281h108v-255q0 -95 97 -102v144h83v-143q48 5 97 16v340h108v-712h-108v279q-51 -11 -97 -17v-153z" />
    <glyph glyph-name="uni04B9" unicode="&#x4b9;" horiz-adv-x="552" 
d="M303 51h-69v120h-13q-70 0 -113 36.5t-43 104.5v195h102v-170q0 -63 67 -71v116h69v-117q35 1 66 10v232h102v-507h-102v187q-29 -7 -66 -10v-126z" />
    <glyph glyph-name="uni04BA" unicode="&#x4ba;" horiz-adv-x="647" 
d="M93 712h108v-279q118 23 191 23q78 0 131.5 -43.5t53.5 -131.5v-281h-109v255q0 104 -109 104q-65 0 -158 -20v-339h-108v712z" />
    <glyph glyph-name="uni04BB" unicode="&#x4bb;" horiz-adv-x="536" 
d="M81 507h102v-187q80 16 145 16t104.5 -36.5t39.5 -104.5v-195h-102v170q0 75 -74 75q-46 0 -113 -12v-233h-102v507z" />
    <glyph glyph-name="uni04C0" unicode="&#x4c0;" horiz-adv-x="294" 
d="M201 0h-108v712h108v-712z" />
    <glyph glyph-name="uni04CF" unicode="&#x4cf;" horiz-adv-x="258" 
d="M180 0h-102v712h102v-712z" />
    <glyph glyph-name="uni04D8" unicode="&#x4d8;" horiz-adv-x="649" 
d="M66 276v109h408q-1 88 -9.5 127.5t-32.5 65.5q-42 44 -106 44q-59 0 -97.5 -32.5t-52.5 -91.5h-108q15 96 82.5 158t175.5 62q112 0 184 -72q48 -49 60 -106.5t12 -183.5t-12 -183.5t-60 -106.5q-72 -72 -184 -72q-119 0 -196 81q-35 38 -49.5 84.5t-14.5 116.5zM174 293
v-40q0 -72 35 -112q43 -51 117 -51q64 0 106 44q22 23 31 57t10 102h-299z" />
    <glyph glyph-name="afii10846" unicode="&#x4d9;" horiz-adv-x="539" 
d="M54 283h329q0 67 -33.5 104.5t-95.5 37.5q-41 0 -68 -12t-55 -40l-65 61q41 41 83.5 60t106.5 19q104 0 166 -62t62 -198q0 -122 -58 -190.5t-157 -68.5q-101 0 -158 67t-57 179v43zM155 212q3 -41 14 -69q27 -64 100 -64q74 0 101 64q12 27 13 69h-228z" />
    <glyph glyph-name="uni04E2" unicode="&#x4e2;" horiz-adv-x="711" 
d="M618 0h-108v517l-319 -517h-98v712h108v-516l318 516h99v-712zM201 795v73h309v-73h-309z" />
    <glyph glyph-name="uni04E3" unicode="&#x4e3;" horiz-adv-x="583" 
d="M502 0h-102v349l-217 -349h-102v507h102v-344l217 344h102v-507zM137 618v73h309v-73h-309z" />
    <glyph glyph-name="uni04E8" unicode="&#x4e8;" horiz-adv-x="646" 
d="M579 356q0 -127 -11.5 -184t-60.5 -106q-72 -72 -184 -72t-184 72q-48 49 -60 106.5t-12 183.5t12 183.5t60 106.5q72 72 184 72t184 -72q49 -49 60.5 -106t11.5 -184zM217 578q-23 -26 -32 -61.5t-10 -113.5h296q-1 78 -10 113.5t-32 61.5q-41 44 -106 44
q-64 0 -106 -44zM429 135q23 25 32 60t10 112h-296q1 -77 10 -112t32 -60q43 -45 106 -45q64 0 106 45z" />
    <glyph glyph-name="uni04E9" unicode="&#x4e9;" horiz-adv-x="537" 
d="M480 254q0 -138 -60 -200q-58 -60 -152 -60q-93 0 -151 60q-60 62 -60 200q0 69 13 116.5t47 82.5q58 60 151 60q94 0 152 -60q34 -35 47 -82.5t13 -116.5zM343 115q30 30 34 109h-218q4 -79 35 -109q30 -30 74 -30q45 0 75 30zM194 393q-31 -31 -34 -98h217
q-5 69 -34 98t-75 29q-45 0 -74 -29z" />
    <glyph glyph-name="uni04EE" unicode="&#x4ee;" horiz-adv-x="564" 
d="M558 712l-255 -596q-50 -116 -150 -116h-74v97h51q59 0 83 57l25 58l-231 500h114l170 -381l153 381h114zM137 795v73h309v-73h-309z" />
    <glyph glyph-name="uni04EF" unicode="&#x4ef;" horiz-adv-x="471" 
d="M464 507l-224 -608q-36 -100 -141 -100h-41v92h26q32 0 47 10.5t26 42.5l28 80l-178 483h109l121 -358l118 358h109zM83 618v73h309v-73h-309z" />
    <glyph glyph-name="Wgrave" unicode="&#x1e80;" horiz-adv-x="871" 
d="M860 712l-186 -712h-94l-145 499l-144 -499h-94l-186 712h114l124 -509l143 509h87l143 -509l124 509h114zM471 781h-77l-111 162h113z" />
    <glyph glyph-name="wgrave" unicode="&#x1e81;" horiz-adv-x="743" 
d="M735 507l-158 -507h-87l-119 354l-118 -354h-88l-157 507h108l98 -357l118 357h79l117 -357l98 357h109zM410 599h-77l-111 162h113z" />
    <glyph glyph-name="Wacute" unicode="&#x1e82;" horiz-adv-x="871" 
d="M860 712l-186 -712h-94l-145 499l-144 -499h-94l-186 712h114l124 -509l143 509h87l143 -509l124 509h114zM588 943l-111 -162h-77l75 162h113z" />
    <glyph glyph-name="wacute" unicode="&#x1e83;" horiz-adv-x="743" 
d="M735 507l-158 -507h-87l-119 354l-118 -354h-88l-157 507h108l98 -357l118 357h79l117 -357l98 357h109zM521 761l-111 -162h-77l75 162h113z" />
    <glyph glyph-name="Wdieresis" unicode="&#x1e84;" horiz-adv-x="871" 
d="M860 712l-186 -712h-94l-145 499l-144 -499h-94l-186 712h114l124 -509l143 509h87l143 -509l124 509h114zM589 786h-92v108h92v-108zM373 786h-92v108h92v-108z" />
    <glyph glyph-name="wdieresis" unicode="&#x1e85;" horiz-adv-x="743" 
d="M735 507l-158 -507h-87l-119 354l-118 -354h-88l-157 507h108l98 -357l118 357h79l117 -357l98 357h109zM525 604h-92v108h92v-108zM309 604h-92v108h92v-108z" />
    <glyph glyph-name="uni1E8A" unicode="&#x1e8a;" horiz-adv-x="578" 
d="M568 0h-125l-155 273l-154 -273h-124l220 365l-206 347h124l140 -255l141 255h124l-206 -347zM240 793v97h97v-97h-97z" />
    <glyph glyph-name="uni1E8B" unicode="&#x1e8b;" horiz-adv-x="503" 
d="M481 0h-123l-106 173l-107 -173h-123l174 259l-167 248h123l100 -165l99 165h123l-166 -248zM204 611v97h97v-97h-97z" />
    <glyph glyph-name="Ygrave" unicode="&#x1ef2;" horiz-adv-x="544" 
d="M539 712l-213 -419v-293h-108v293l-213 419h118l149 -313l149 313h118zM313 781h-77l-111 162h113z" />
    <glyph glyph-name="ygrave" unicode="&#x1ef3;" horiz-adv-x="468" 
d="M464 507l-224 -608q-14 -40 -37 -63q-37 -37 -104 -37h-41v92h26q32 0 47 11.5t26 42.5l28 79l-177 483h108l121 -357l118 357h109zM274 599h-77l-111 162h113z" />
    <glyph glyph-name="uni2007" unicode="&#x2007;" horiz-adv-x="533" 
 />
    <glyph glyph-name="uni2008" unicode="&#x2008;" horiz-adv-x="278" 
 />
    <glyph glyph-name="uni200B" unicode="&#x200b;" horiz-adv-x="0" 
 />
    <glyph glyph-name="endash" unicode="&#x2013;" horiz-adv-x="533" 
d="M482 230h-431v95h431v-95z" />
    <glyph glyph-name="emdash" unicode="&#x2014;" horiz-adv-x="972" 
d="M905 231h-838v97h838v-97z" />
    <glyph glyph-name="afii00208" unicode="&#x2015;" horiz-adv-x="972" 
d="M905 231h-838v97h838v-97z" />
    <glyph glyph-name="quoteleft" unicode="&#x2018;" horiz-adv-x="268" 
d="M190 608h-112v104l112 93v-197z" />
    <glyph glyph-name="quoteright" unicode="&#x2019;" horiz-adv-x="268" 
d="M190 607l-112 -91v196h112v-105z" />
    <glyph glyph-name="quotesinglbase" unicode="&#x201a;" horiz-adv-x="267" 
d="M190 0l-112 -92v197h112v-105z" />
    <glyph glyph-name="quotedblleft" unicode="&#x201c;" horiz-adv-x="459" 
d="M381 608h-112v104l112 93v-197zM190 608h-112v104l112 93v-197z" />
    <glyph glyph-name="quotedblright" unicode="&#x201d;" horiz-adv-x="459" 
d="M381 607l-112 -91v196h112v-105zM190 607l-112 -91v196h112v-105z" />
    <glyph glyph-name="quotedblbase" unicode="&#x201e;" horiz-adv-x="460" 
d="M381 0l-112 -92v197h112v-105zM190 0l-112 -92v197h112v-105z" />
    <glyph glyph-name="dagger" unicode="&#x2020;" horiz-adv-x="591" 
d="M526 427h-180v-427h-102v427h-179v91h179v194h102v-194h180v-91z" />
    <glyph glyph-name="daggerdbl" unicode="&#x2021;" horiz-adv-x="591" 
d="M526 -11h-180v-194h-102v194h-179v92h179v346h-179v91h179v194h102v-194h180v-91h-180v-346h180v-92z" />
    <glyph glyph-name="bullet" unicode="&#x2022;" horiz-adv-x="512" 
d="M419 334q0 -68 -47.5 -115.5t-115.5 -47.5t-115.5 47.5t-47.5 115.5t47.5 115.5t115.5 47.5t115.5 -47.5t47.5 -115.5z" />
    <glyph glyph-name="ellipsis" unicode="&#x2026;" horiz-adv-x="803" 
d="M725 0h-117v117h117v-117zM195 0h-117v117h117v-117zM460 0h-117v117h117v-117z" />
    <glyph glyph-name="perthousand" unicode="&#x2030;" horiz-adv-x="1196" 
d="M784 130q0 -63 -40 -100t-100 -37t-100 37t-40 100v101q0 63 40 100t100 37t100 -37t40 -100v-101zM1138 130q0 -63 -40 -100t-100 -37t-100 37t-40 100v101q0 63 40 100t100 37t100 -37t40 -100v-101zM338 481q0 -63 -40 -99.5t-100 -36.5t-100 36.5t-40 99.5v101
q0 63 40 100t100 37t100 -37t40 -100v-101zM629 712l-335 -712h-82l336 712h81zM707 133v95q0 72 -63 72t-63 -72v-95q0 -72 63 -72t63 72zM1061 133v95q0 72 -63 72t-63 -72v-95q0 -72 63 -72t63 72zM261 484v95q0 72 -63 72t-63 -72v-95q0 -71 63 -71t63 71z" />
    <glyph glyph-name="guilsinglleft" unicode="&#x2039;" horiz-adv-x="339" 
d="M267 42l-230 230l230 229v-123l-107 -106l107 -107v-123z" />
    <glyph glyph-name="guilsinglright" unicode="&#x203a;" horiz-adv-x="339" 
d="M303 272l-231 -230v123l108 107l-108 106v123z" />
    <glyph glyph-name="fraction" unicode="&#x2044;" horiz-adv-x="197" 
d="M307 712l-335 -712h-82l335 712h82z" />
    <glyph glyph-name="uni2070" unicode="&#x2070;" 
d="M292 408q0 -59 -37.5 -93t-91.5 -34t-91.5 34t-37.5 93v181q0 59 37.5 93t91.5 34t91.5 -34t37.5 -93v-181zM216 408v180q0 27 -14.5 43.5t-38.5 16.5t-38.5 -16t-14.5 -44v-180q0 -27 14.5 -42.5t38.5 -15.5t38.5 15.5t14.5 42.5z" />
    <glyph glyph-name="uni2074" unicode="&#x2074;" 
d="M306 346h-40v-61h-73v61h-174v71l146 295h84l-147 -295h91v83h73v-83h40v-71z" />
    <glyph glyph-name="uni2075" unicode="&#x2075;" 
d="M296 428q0 -74 -38 -112q-35 -35 -94 -35q-61 0 -95 34q-29 30 -34 88h76q6 -53 53 -53q23 0 39 14q16 17 16 64q0 78 -53 78q-43 0 -52 -35h-71v241h243v-69h-173v-94q24 21 65 21q51 0 79 -28q39 -39 39 -114z" />
    <glyph glyph-name="uni2076" unicode="&#x2076;" 
d="M295 414q0 -61 -37.5 -97t-95.5 -36t-95 35.5t-37 96.5q0 44 32 108l94 191h83l-89 -177q12 5 32 5q46 0 79.5 -34.5t33.5 -91.5zM218 414q0 29 -15 46.5t-41 17.5q-25 0 -40.5 -17t-15.5 -47t15.5 -47.5t40.5 -17.5t40.5 17.5t15.5 47.5z" />
    <glyph glyph-name="uni2077" unicode="&#x2077;" 
d="M301 644l-139 -359h-77l139 358h-123v-70h-71v139h271v-68z" />
    <glyph glyph-name="uni2078" unicode="&#x2078;" 
d="M299 409q0 -60 -38.5 -94t-97.5 -34t-98 34t-39 94t55 97q-49 33 -49 88t38 88.5t93 33.5t93 -33.5t38 -88.5q0 -56 -49 -88q54 -37 54 -97zM223 410q0 26 -17.5 43.5t-42.5 17.5t-42.5 -17.5t-17.5 -43.5t17.5 -43t42.5 -17t42.5 17t17.5 43zM217 592q0 24 -15 39.5
t-39 15.5t-39 -15.5t-15 -39.5q0 -23 15.5 -39t38.5 -16t38.5 16t15.5 39z" />
    <glyph glyph-name="uni2079" unicode="&#x2079;" 
d="M296 584q0 -42 -33 -108l-93 -191h-83l89 177q-13 -5 -33 -5q-45 0 -78.5 34.5t-33.5 91.5q0 61 37.5 97t95.5 36t95 -35.5t37 -96.5zM220 584q0 29 -15.5 46t-40.5 17t-41 -17t-16 -46q0 -28 15.5 -46.5t41.5 -18.5q24 0 40 17.5t16 47.5z" />
    <glyph glyph-name="uni2080" unicode="&#x2080;" 
d="M292 -27q0 -59 -37.5 -93t-91.5 -34t-91.5 34t-37.5 93v181q0 59 37.5 93t91.5 34t91.5 -34t37.5 -93v-181zM216 -27v180q0 27 -14.5 43.5t-38.5 16.5t-38.5 -16t-14.5 -44v-180q0 -27 14.5 -42.5t38.5 -15.5t38.5 15.5t14.5 42.5z" />
    <glyph glyph-name="uni2081" unicode="&#x2081;" 
d="M224 -150h-77v341l-87 -76v87l87 75h77v-427z" />
    <glyph glyph-name="uni2082" unicode="&#x2082;" 
d="M297 -150h-260v69l161 186q22 26 22 52q0 25 -14 40t-39 15q-53 0 -53 -55h-77q0 57 36.5 90.5t93.5 33.5t93.5 -33.5t36.5 -90.5q0 -28 -10.5 -48.5t-35.5 -49.5l-121 -140h167v-69z" />
    <glyph glyph-name="uni2083" unicode="&#x2083;" 
d="M302 -26q0 -61 -38.5 -94.5t-96.5 -33.5q-57 0 -96.5 31.5t-40.5 94.5h77q1 -28 18 -42.5t42 -14.5q26 0 42 16t16 45q0 28 -16 44t-45 16h-11v66h11q27 0 41.5 15.5t14.5 39.5q0 27 -15.5 41.5t-38.5 14.5t-38 -13.5t-16 -38.5h-76q1 56 38 88.5t92 32.5q57 0 93.5 -34
t36.5 -88q0 -63 -50 -89q56 -29 56 -97z" />
    <glyph glyph-name="uni2084" unicode="&#x2084;" 
d="M306 -89h-40v-61h-73v61h-174v71l146 295h84l-147 -295h91v83h73v-83h40v-71z" />
    <glyph glyph-name="uni2085" unicode="&#x2085;" 
d="M296 -7q0 -74 -38 -112q-35 -35 -94 -35q-61 0 -95 34q-29 30 -34 88h76q6 -53 53 -53q23 0 39 14q16 17 16 64q0 78 -53 78q-43 0 -52 -35h-71v241h243v-69h-173v-94q24 21 65 21q51 0 79 -28q39 -39 39 -114z" />
    <glyph glyph-name="uni2086" unicode="&#x2086;" 
d="M295 -21q0 -61 -37.5 -97t-95.5 -36t-95 35.5t-37 96.5q0 44 32 108l94 191h83l-89 -177q12 5 32 5q46 0 79.5 -34.5t33.5 -91.5zM218 -21q0 29 -15 46.5t-41 17.5q-25 0 -40.5 -17t-15.5 -47t15.5 -47.5t40.5 -17.5t40.5 17.5t15.5 47.5z" />
    <glyph glyph-name="uni2087" unicode="&#x2087;" 
d="M301 209l-139 -359h-77l139 358h-123v-70h-71v139h271v-68z" />
    <glyph glyph-name="uni2088" unicode="&#x2088;" 
d="M299 -26q0 -60 -38.5 -94t-97.5 -34t-98 34t-39 94t55 97q-49 33 -49 88t38 88.5t93 33.5t93 -33.5t38 -88.5q0 -56 -49 -88q54 -37 54 -97zM223 -25q0 26 -17.5 43.5t-42.5 17.5t-42.5 -17.5t-17.5 -43.5q0 -25 17.5 -42.5t42.5 -17.5t42.5 17.5t17.5 42.5zM217 157
q0 24 -15 39.5t-39 15.5t-39 -15.5t-15 -39.5q0 -23 15.5 -39t38.5 -16t38.5 16t15.5 39z" />
    <glyph glyph-name="uni2089" unicode="&#x2089;" 
d="M296 149q0 -42 -33 -108l-93 -191h-83l89 177q-12 -5 -33 -5q-45 0 -78.5 34.5t-33.5 91.5q0 61 37.5 97t95.5 36t95 -35.5t37 -96.5zM220 149q0 29 -15.5 46t-40.5 17t-41 -17t-16 -46q0 -28 15.5 -46.5t41.5 -18.5q24 0 40 18t16 47z" />
    <glyph glyph-name="Euro" unicode="&#x20ac;" horiz-adv-x="681" 
d="M621 213q-18 -104 -87 -161.5t-168 -57.5q-111 0 -184 73q-35 35 -50 75.5t-19 105.5h-70v67h67v86h-67v67h70q4 62 19 102t50 75q73 73 184 73q100 0 168.5 -57.5t86.5 -161.5h-110q-13 57 -50 90t-95 33q-61 0 -105 -44q-19 -19 -27 -43t-11 -67h183v-67h-188v-86h188
v-67h-183q4 -80 38 -114q44 -44 105 -44q58 0 95.5 33t50.5 90h109z" />
    <glyph glyph-name="uni20B4" unicode="&#x20b4;" horiz-adv-x="670" 
d="M574 468h53v-67h-79q-10 -16 -23 -28q-48 -45 -135 -57l-7 -1h244v-67h-418q-9 -21 -9 -48q0 -52 38.5 -80.5t108.5 -28.5q114 0 182 68l72 -71q-50 -51 -110 -72.5t-142 -21.5q-114 0 -185 56t-71 153q0 24 3 45h-53v67h79q15 22 29 34q43 39 126 52h-234v67h418
q11 20 11 45q0 49 -34.5 80t-95.5 31q-97 0 -155 -55l-69 68q87 81 221 81q110 0 174 -57.5t64 -151.5q0 -22 -3 -41z" />
    <glyph glyph-name="afii61352" unicode="&#x2116;" horiz-adv-x="956" 
d="M561 0h-92l-293 513v-513h-101v712h92l292 -512v512h102v-712zM902 246h-280v76h280v-76zM825 539q0 73 -20 93q-16 16 -42 16t-42 -16q-20 -20 -20 -93q0 -72 20 -92q17 -17 42 -17t42 17q20 20 20 92zM907 537q0 -98 -41 -139q-39 -41 -103 -41q-63 0 -102 41
q-41 41 -41 139t41 139q39 41 102 41q64 0 103 -41q41 -42 41 -139z" />
    <glyph glyph-name="trademark" unicode="&#x2122;" horiz-adv-x="883" 
d="M822 285h-77v279l-90 -179h-71l-90 179v-279h-77v427h77l125 -243l126 243h77v-427zM346 643h-115v-358h-76v358h-114v69h305v-69z" />
    <glyph glyph-name="Omega" unicode="&#x2126;" horiz-adv-x="647" 
d="M579 356q0 -144 -25 -200q-16 -34 -45 -60h70v-96h-207v87q49 23 73 60q15 23 20.5 68t5.5 137q0 108 -8 152.5t-34 72.5q-42 45 -106 45t-106 -45q-26 -28 -34 -72.5t-8 -152.5q0 -164 27 -205q24 -38 72 -60v-87h-207v96h71q-31 28 -46 60q-25 56 -25 200
q0 126 12 183.5t60 106.5q72 72 184 72t184 -72q49 -49 60.5 -106t11.5 -184z" />
    <glyph glyph-name="uni2150" unicode="&#x2150;" horiz-adv-x="847" 
d="M224 285h-77v341l-87 -76v87l87 75h77v-427zM632 712l-335 -712h-82l335 712h82zM823 359l-139 -359h-77l139 358h-123v-70h-71v139h271v-68z" />
    <glyph glyph-name="uni2151" unicode="&#x2151;" horiz-adv-x="847" 
d="M224 285h-77v341l-87 -76v87l87 75h77v-427zM632 712l-335 -712h-82l335 712h82zM818 299q0 -42 -33 -108l-93 -191h-83l89 177q-12 -5 -33 -5q-45 0 -78.5 34.5t-33.5 91.5q0 61 37.5 97t95.5 36t95 -35.5t37 -96.5zM742 299q0 29 -15.5 46t-40.5 17t-41 -17t-16 -46
q0 -28 15.5 -46.5t41.5 -18.5q24 0 40 18t16 47z" />
    <glyph glyph-name="uni2152" unicode="&#x2152;" horiz-adv-x="1172" 
d="M224 285h-77v341l-87 -76v87l87 75h77v-427zM632 712l-335 -712h-82l335 712h82zM746 0h-77v341l-87 -76v87l87 75h77v-427zM1139 123q0 -59 -37.5 -93t-91.5 -34t-91.5 34t-37.5 93v181q0 59 37.5 93t91.5 34t91.5 -34t37.5 -93v-181zM1063 123v180q0 27 -14.5 43.5
t-38.5 16.5t-38.5 -16t-14.5 -44v-180q0 -27 14.5 -42.5t38.5 -15.5t38.5 15.5t14.5 42.5z" />
    <glyph glyph-name="onethird" unicode="&#x2153;" horiz-adv-x="847" 
d="M224 285h-77v341l-87 -76v87l87 75h77v-427zM632 712l-335 -712h-82l335 712h82zM824 124q0 -61 -38.5 -94.5t-96.5 -33.5q-57 0 -96.5 31.5t-40.5 94.5h77q1 -28 18 -42.5t42 -14.5q26 0 42 16t16 45q0 28 -16 44t-45 16h-11v66h11q27 0 41.5 15.5t14.5 39.5
q0 27 -15.5 41.5t-38.5 14.5t-38 -13.5t-16 -38.5h-76q1 56 38 88.5t92 32.5q57 0 93.5 -34t36.5 -88q0 -63 -50 -89q56 -29 56 -97z" />
    <glyph glyph-name="twothirds" unicode="&#x2154;" horiz-adv-x="847" 
d="M297 285h-260v69l161 186q22 26 22 52q0 25 -14 40t-39 15q-53 0 -53 -55h-77q0 57 36.5 90.5t93.5 33.5t93.5 -33.5t36.5 -90.5q0 -28 -10.5 -48.5t-35.5 -49.5l-121 -140h167v-69zM632 712l-335 -712h-82l335 712h82zM824 124q0 -61 -38.5 -94.5t-96.5 -33.5
q-57 0 -96.5 31.5t-40.5 94.5h77q1 -28 18 -42.5t42 -14.5q26 0 42 16t16 45q0 28 -16 44t-45 16h-11v66h11q27 0 41.5 15.5t14.5 39.5q0 27 -15.5 41.5t-38.5 14.5t-38 -13.5t-16 -38.5h-76q1 56 38 88.5t92 32.5q57 0 93.5 -34t36.5 -88q0 -63 -50 -89q56 -29 56 -97z" />
    <glyph glyph-name="uni2155" unicode="&#x2155;" horiz-adv-x="847" 
d="M224 285h-77v341l-87 -76v87l87 75h77v-427zM632 712l-335 -712h-82l335 712h82zM818 143q0 -74 -38 -112q-35 -35 -94 -35q-61 0 -95 34q-29 30 -34 88h76q6 -53 53 -53q23 0 39 14q16 17 16 64q0 78 -53 78q-43 0 -52 -35h-71v241h243v-69h-173v-94q24 21 65 21
q51 0 79 -28q39 -39 39 -114z" />
    <glyph glyph-name="uni2156" unicode="&#x2156;" horiz-adv-x="847" 
d="M297 285h-260v69l161 186q22 26 22 52q0 25 -14 40t-39 15q-53 0 -53 -55h-77q0 57 36.5 90.5t93.5 33.5t93.5 -33.5t36.5 -90.5q0 -28 -10.5 -48.5t-35.5 -49.5l-121 -140h167v-69zM632 712l-335 -712h-82l335 712h82zM818 143q0 -74 -38 -112q-35 -35 -94 -35
q-61 0 -95 34q-29 30 -34 88h76q6 -53 53 -53q23 0 39 14q16 17 16 64q0 78 -53 78q-43 0 -52 -35h-71v241h243v-69h-173v-94q24 21 65 21q51 0 79 -28q39 -39 39 -114z" />
    <glyph glyph-name="uni2157" unicode="&#x2157;" horiz-adv-x="847" 
d="M302 409q0 -61 -38.5 -94.5t-96.5 -33.5q-57 0 -96.5 31.5t-40.5 94.5h77q1 -28 18 -42.5t42 -14.5q26 0 42 16t16 45q0 28 -16 44t-45 16h-11v66h11q27 0 41.5 15.5t14.5 39.5q0 27 -15.5 41.5t-38.5 14.5t-38 -13.5t-16 -38.5h-76q1 56 38 88.5t92 32.5q57 0 93.5 -34
t36.5 -88q0 -63 -50 -89q56 -29 56 -97zM632 712l-335 -712h-82l335 712h82zM818 143q0 -74 -38 -112q-35 -35 -94 -35q-61 0 -95 34q-29 30 -34 88h76q6 -53 53 -53q23 0 39 14q16 17 16 64q0 78 -53 78q-43 0 -52 -35h-71v241h243v-69h-173v-94q24 21 65 21q51 0 79 -28
q39 -39 39 -114z" />
    <glyph glyph-name="uni2158" unicode="&#x2158;" horiz-adv-x="847" 
d="M306 346h-40v-61h-73v61h-174v71l146 295h84l-147 -295h91v83h73v-83h40v-71zM632 712l-335 -712h-82l335 712h82zM818 143q0 -74 -38 -112q-35 -35 -94 -35q-61 0 -95 34q-29 30 -34 88h76q6 -53 53 -53q23 0 39 14q16 17 16 64q0 78 -53 78q-43 0 -52 -35h-71v241h243
v-69h-173v-94q24 21 65 21q51 0 79 -28q39 -39 39 -114z" />
    <glyph glyph-name="uni2159" unicode="&#x2159;" horiz-adv-x="847" 
d="M224 285h-77v341l-87 -76v87l87 75h77v-427zM632 712l-335 -712h-82l335 712h82zM817 129q0 -61 -37.5 -97t-95.5 -36t-95 35.5t-37 96.5q0 44 32 108l94 191h83l-89 -177q13 5 32 5q46 0 79.5 -34.5t33.5 -91.5zM740 129q0 29 -15 46.5t-41 17.5q-25 0 -40.5 -17
t-15.5 -47t15.5 -47.5t40.5 -17.5t40.5 17.5t15.5 47.5z" />
    <glyph glyph-name="uni215A" unicode="&#x215a;" horiz-adv-x="847" 
d="M296 428q0 -74 -38 -112q-35 -35 -94 -35q-61 0 -95 34q-29 30 -34 88h76q6 -53 53 -53q23 0 39 14q16 17 16 64q0 78 -53 78q-43 0 -52 -35h-71v241h243v-69h-173v-94q24 21 65 21q51 0 79 -28q39 -39 39 -114zM632 712l-335 -712h-82l335 712h82zM817 129
q0 -61 -37.5 -97t-95.5 -36t-95 35.5t-37 96.5q0 44 32 108l94 191h83l-89 -177q13 5 32 5q46 0 79.5 -34.5t33.5 -91.5zM740 129q0 29 -15 46.5t-41 17.5q-25 0 -40.5 -17t-15.5 -47t15.5 -47.5t40.5 -17.5t40.5 17.5t15.5 47.5z" />
    <glyph glyph-name="oneeighth" unicode="&#x215b;" horiz-adv-x="847" 
d="M224 285h-77v341l-87 -76v87l87 75h77v-427zM632 712l-335 -712h-82l335 712h82zM821 124q0 -60 -38.5 -94t-97.5 -34t-98 34t-39 94t55 97q-49 33 -49 88t38 88.5t93 33.5t93 -33.5t38 -88.5q0 -56 -49 -88q54 -37 54 -97zM745 125q0 26 -17.5 43.5t-42.5 17.5
t-42.5 -17.5t-17.5 -43.5q0 -25 17.5 -42.5t42.5 -17.5t42.5 17.5t17.5 42.5zM739 307q0 24 -15 39.5t-39 15.5t-39 -15.5t-15 -39.5q0 -23 15.5 -39t38.5 -16t38.5 16t15.5 39z" />
    <glyph glyph-name="threeeighths" unicode="&#x215c;" horiz-adv-x="847" 
d="M302 409q0 -61 -38.5 -94.5t-96.5 -33.5q-57 0 -96.5 31.5t-40.5 94.5h77q1 -28 18 -42.5t42 -14.5q26 0 42 16t16 45q0 28 -16 44t-45 16h-11v66h11q27 0 41.5 15.5t14.5 39.5q0 27 -15.5 41.5t-38.5 14.5t-38 -13.5t-16 -38.5h-76q1 56 38 88.5t92 32.5q57 0 93.5 -34
t36.5 -88q0 -63 -50 -89q56 -29 56 -97zM632 712l-335 -712h-82l335 712h82zM821 124q0 -60 -38.5 -94t-97.5 -34t-98 34t-39 94t55 97q-49 33 -49 88t38 88.5t93 33.5t93 -33.5t38 -88.5q0 -56 -49 -88q54 -37 54 -97zM745 125q0 26 -17.5 43.5t-42.5 17.5t-42.5 -17.5
t-17.5 -43.5q0 -25 17.5 -42.5t42.5 -17.5t42.5 17.5t17.5 42.5zM739 307q0 24 -15 39.5t-39 15.5t-39 -15.5t-15 -39.5q0 -23 15.5 -39t38.5 -16t38.5 16t15.5 39z" />
    <glyph glyph-name="fiveeighths" unicode="&#x215d;" horiz-adv-x="847" 
d="M296 428q0 -74 -38 -112q-35 -35 -94 -35q-61 0 -95 34q-29 30 -34 88h76q6 -53 53 -53q23 0 39 14q16 17 16 64q0 78 -53 78q-43 0 -52 -35h-71v241h243v-69h-173v-94q24 21 65 21q51 0 79 -28q39 -39 39 -114zM632 712l-335 -712h-82l335 712h82zM821 124
q0 -60 -38.5 -94t-97.5 -34t-98 34t-39 94t55 97q-49 33 -49 88t38 88.5t93 33.5t93 -33.5t38 -88.5q0 -56 -49 -88q54 -37 54 -97zM745 125q0 26 -17.5 43.5t-42.5 17.5t-42.5 -17.5t-17.5 -43.5q0 -25 17.5 -42.5t42.5 -17.5t42.5 17.5t17.5 42.5zM739 307q0 24 -15 39.5
t-39 15.5t-39 -15.5t-15 -39.5q0 -23 15.5 -39t38.5 -16t38.5 16t15.5 39z" />
    <glyph glyph-name="seveneighths" unicode="&#x215e;" horiz-adv-x="847" 
d="M301 644l-139 -359h-77l139 358h-123v-70h-71v139h271v-68zM632 712l-335 -712h-82l335 712h82zM821 124q0 -60 -38.5 -94t-97.5 -34t-98 34t-39 94t55 97q-49 33 -49 88t38 88.5t93 33.5t93 -33.5t38 -88.5q0 -56 -49 -88q54 -37 54 -97zM745 125q0 26 -17.5 43.5
t-42.5 17.5t-42.5 -17.5t-17.5 -43.5q0 -25 17.5 -42.5t42.5 -17.5t42.5 17.5t17.5 42.5zM739 307q0 24 -15 39.5t-39 15.5t-39 -15.5t-15 -39.5q0 -23 15.5 -39t38.5 -16t38.5 16t15.5 39z" />
    <glyph glyph-name="uni215F" unicode="&#x215f;" horiz-adv-x="522" 
d="M224 285h-77v341l-87 -76v87l87 75h77v-427zM632 712l-335 -712h-82l335 712h82z" />
    <glyph glyph-name="uni2189" unicode="&#x2189;" horiz-adv-x="847" 
d="M292 408q0 -59 -37.5 -93t-91.5 -34t-91.5 34t-37.5 93v181q0 59 37.5 93t91.5 34t91.5 -34t37.5 -93v-181zM216 408v180q0 27 -14.5 43.5t-38.5 16.5t-38.5 -16t-14.5 -44v-180q0 -27 14.5 -42.5t38.5 -15.5t38.5 15.5t14.5 42.5zM632 712l-335 -712h-82l335 712h82z
M824 124q0 -61 -38.5 -94.5t-96.5 -33.5q-57 0 -96.5 31.5t-40.5 94.5h77q1 -28 18 -42.5t42 -14.5q26 0 42 16t16 45q0 28 -16 44t-45 16h-11v66h11q27 0 41.5 15.5t14.5 39.5q0 27 -15.5 41.5t-38.5 14.5t-38 -13.5t-16 -38.5h-76q1 56 38 88.5t92 32.5q57 0 93.5 -34
t36.5 -88q0 -63 -50 -89q56 -29 56 -97z" />
    <glyph glyph-name="arrowleft" unicode="&#x2190;" horiz-adv-x="1027" 
d="M444 -114l-392 391l392 392h130l-345 -343h745v-97h-745l345 -343h-130z" />
    <glyph glyph-name="arrowup" unicode="&#x2191;" horiz-adv-x="1027" 
d="M121 347l391 392l392 -392v-130l-343 345v-745h-97v745l-343 -345v130z" />
    <glyph glyph-name="arrowright" unicode="&#x2192;" horiz-adv-x="1027" 
d="M453 -114l345 344h-745v96h745l-345 344h130l392 -392l-392 -392h-130z" />
    <glyph glyph-name="arrowdown" unicode="&#x2193;" horiz-adv-x="1027" 
d="M905 209l-391 -392l-392 392v130l343 -345v745h97v-745l343 345v-130z" />
    <glyph glyph-name="uni2196" unicode="&#x2196;" horiz-adv-x="1027" 
d="M873 -14l-68 -68l-527 526l1 -487l-92 92v554h555l92 -92l-487 1z" />
    <glyph glyph-name="uni2197" unicode="&#x2197;" horiz-adv-x="1027" 
d="M839 49l-91 -92l1 488l-528 -527l-68 68l527 527l-487 -2l92 92h554v-554z" />
    <glyph glyph-name="uni2198" unicode="&#x2198;" horiz-adv-x="1027" 
d="M846 -65h-554l-92 91l487 -1l-527 527l69 69l527 -527l-2 487l92 -93v-553z" />
    <glyph glyph-name="uni2199" unicode="&#x2199;" horiz-adv-x="1027" 
d="M865 551l-526 -526l487 1l-92 -91h-555v554l92 92v-487l526 527z" />
    <glyph glyph-name="partialdiff" unicode="&#x2202;" horiz-adv-x="549" 
d="M468 249q0 -69 -12 -115t-45 -81q-56 -59 -146 -59q-91 0 -147 59q-33 35 -45 81t-12 115q0 70 12 117t45 81q55 57 141 57q70 0 107 -42v47q0 49 -29 85.5t-90 36.5q-63 0 -110 -44l-64 64q40 37 80 52t98 15q105 0 161 -62t56 -165v-242zM366 249q0 101 -32 135
q-29 29 -69 29q-41 0 -70 -29q-32 -34 -32 -135t32 -135q29 -29 70 -29q40 0 69 29q32 34 32 135z" />
    <glyph glyph-name="Delta" unicode="&#x2206;" horiz-adv-x="619" 
d="M613 0h-608l261 712h87zM472 92l-161 459l-162 -459h323z" />
    <glyph glyph-name="product" unicode="&#x220f;" horiz-adv-x="690" 
d="M598 -205h-109v869h-288v-869h-108v965h505v-965z" />
    <glyph glyph-name="summation" unicode="&#x2211;" horiz-adv-x="552" 
d="M508 -205h-460v88l195 406l-193 383v88h455v-97h-329l161 -325v-100l-164 -346h335v-97z" />
    <glyph glyph-name="minus" unicode="&#x2212;" horiz-adv-x="533" 
d="M482 230h-431v95h431v-95z" />
    <glyph glyph-name="uni2219" unicode="&#x2219;" horiz-adv-x="533" 
d="M429 334q0 -68 -47.5 -115.5t-115.5 -47.5t-115.5 47.5t-47.5 115.5t47.5 115.5t115.5 47.5t115.5 -47.5t47.5 -115.5z" />
    <glyph glyph-name="radical" unicode="&#x221a;" horiz-adv-x="580" 
d="M550 615h-91l-202 -615h-84l-168 507h111l99 -313l163 518h172v-97z" />
    <glyph glyph-name="infinity" unicode="&#x221e;" horiz-adv-x="830" 
d="M769 276q0 -76 -47 -125t-128 -49q-95 0 -179 99q-85 -100 -179 -100q-81 0 -128 49.5t-47 125.5t47 125.5t128 49.5q94 0 179 -100q43 51 85.5 75.5t93.5 24.5q81 0 128 -49.5t47 -125.5zM347 274q-23 28 -37 42t-33.5 25.5t-39.5 11.5q-34 0 -56 -22t-22 -57t22 -57
t56 -22q28 0 51.5 19t58.5 60zM671 274q0 35 -22.5 56.5t-56.5 21.5q-20 0 -39.5 -11.5t-33 -25t-36.5 -41.5q24 -29 37 -42t32.5 -25t39.5 -12q34 0 56.5 22t22.5 57z" />
    <glyph glyph-name="integral" unicode="&#x222b;" horiz-adv-x="433" 
d="M385 633h-44q-72 0 -72 -74v-599q0 -75 -44.5 -118.5t-119.5 -43.5h-57v87h44q71 0 71 74v599q0 75 44.5 118.5t120.5 43.5h57v-87z" />
    <glyph glyph-name="approxequal" unicode="&#x2248;" horiz-adv-x="574" 
d="M531 380q-44 -44 -76 -60.5t-72 -16.5q-46 0 -112 32q-48 24 -79 24q-23 0 -40.5 -8t-44.5 -35l-64 64q44 44 75.5 60.5t71.5 16.5q45 0 111 -32q48 -24 80 -24q23 0 40.5 8t44.5 35zM531 178q-44 -44 -75.5 -61t-71.5 -17q-44 0 -112 33q-48 24 -79 24q-23 0 -41 -8.5
t-45 -35.5l-64 64q44 44 76 61t72 17q43 0 111 -33q48 -24 80 -24q23 0 40.5 8.5t44.5 35.5z" />
    <glyph glyph-name="notequal" unicode="&#x2260;" horiz-adv-x="571" 
d="M520 133h-303l-103 -120l-63 51l61 69h-61v95h138l88 99h-226v95h302l104 120l63 -51l-61 -69h61v-95h-138l-88 -99h226v-95z" />
    <glyph glyph-name="lessequal" unicode="&#x2264;" horiz-adv-x="533" 
d="M451 155l-369 178v90l369 178v-108l-245 -115l245 -115v-108zM451 -29l-369 177v108l369 -177v-108z" />
    <glyph glyph-name="greaterequal" unicode="&#x2265;" horiz-adv-x="533" 
d="M451 333l-369 -178v108l245 115l-245 115v108l369 -178v-90zM451 148l-369 -177v108l369 177v-108z" />
    <glyph glyph-name="dotmath" unicode="&#x22c5;" horiz-adv-x="533" 
d="M327 217h-122v122h122v-122z" />
    <glyph glyph-name="lozenge" unicode="&#x25ca;" horiz-adv-x="642" 
d="M582 346l-261 -365l-260 365l260 365zM467 346l-146 207l-146 -207l146 -208z" />
    <glyph glyph-name="fi" unicode="&#xfb01;" horiz-adv-x="586" 
d="M300 429h-101v-429h-102v429h-58v78h58v69q0 59 36 100t103 41h64v-87h-45q-56 0 -56 -59v-64h101v-78zM505 0h-102v507h102v-507zM508 607h-108v108h108v-108z" />
    <glyph glyph-name="fl" unicode="&#xfb02;" horiz-adv-x="633" 
d="M300 429h-101v-429h-102v429h-58v78h58v69q0 59 36 100t103 41h64v-87h-45q-56 0 -56 -59v-64h101v-78zM602 0h-63q-69 0 -104 39.5t-35 100.5v572h102v-566q0 -30 12.5 -44.5t42.5 -14.5h45v-87z" />
    <glyph glyph-name="uniFEFF" unicode="&#xfeff;" horiz-adv-x="0" 
 />
    <glyph glyph-name="i.latn_TRK" horiz-adv-x="264" 
d="M183 0h-102v507h102v-507zM186 607h-108v108h108v-108z" />
    <glyph glyph-name="Ldot.latn_CAT" horiz-adv-x="574" 
d="M544 0h-451v712h108v-615h343v-97zM380 309v97h97v-97h-97z" />
    <glyph glyph-name="ldot.latn_CAT" horiz-adv-x="340" 
d="M280 0h-63q-69 0 -104 39.5t-35 100.5v572h102v-566q0 -30 12.5 -44.5t42.5 -14.5h45v-87zM252 228v97h97v-97h-97z" />
    <glyph glyph-name="zero.numr" 
d="M292 408q0 -59 -37.5 -93t-91.5 -34t-91.5 34t-37.5 93v181q0 59 37.5 93t91.5 34t91.5 -34t37.5 -93v-181zM216 408v180q0 27 -14.5 43.5t-38.5 16.5t-38.5 -16t-14.5 -44v-180q0 -27 14.5 -42.5t38.5 -15.5t38.5 15.5t14.5 42.5z" />
    <glyph glyph-name="one.numr" 
d="M224 285h-77v341l-87 -76v87l87 75h77v-427z" />
    <glyph glyph-name="two.numr" 
d="M297 285h-260v69l161 186q22 26 22 52q0 25 -14 40t-39 15q-53 0 -53 -55h-77q0 57 36.5 90.5t93.5 33.5t93.5 -33.5t36.5 -90.5q0 -28 -10.5 -48.5t-35.5 -49.5l-121 -140h167v-69z" />
    <glyph glyph-name="three.numr" 
d="M302 409q0 -61 -38.5 -94.5t-96.5 -33.5q-57 0 -96.5 31.5t-40.5 94.5h77q1 -28 18 -42.5t42 -14.5q26 0 42 16t16 45q0 28 -16 44t-45 16h-11v66h11q27 0 41.5 15.5t14.5 39.5q0 27 -15.5 41.5t-38.5 14.5t-38 -13.5t-16 -38.5h-76q1 56 38 88.5t92 32.5q57 0 93.5 -34
t36.5 -88q0 -63 -50 -89q56 -29 56 -97z" />
    <glyph glyph-name="four.numr" 
d="M306 346h-40v-61h-73v61h-174v71l146 295h84l-147 -295h91v83h73v-83h40v-71z" />
    <glyph glyph-name="five.numr" 
d="M296 428q0 -74 -38 -112q-35 -35 -94 -35q-61 0 -95 34q-29 30 -34 88h76q6 -53 53 -53q23 0 39 14q16 17 16 64q0 78 -53 78q-43 0 -52 -35h-71v241h243v-69h-173v-94q24 21 65 21q51 0 79 -28q39 -39 39 -114z" />
    <glyph glyph-name="six.numr" 
d="M295 414q0 -61 -37.5 -97t-95.5 -36t-95 35.5t-37 96.5q0 44 32 108l94 191h83l-89 -177q12 5 32 5q46 0 79.5 -34.5t33.5 -91.5zM218 414q0 29 -15 46.5t-41 17.5q-25 0 -40.5 -17t-15.5 -47t15.5 -47.5t40.5 -17.5t40.5 17.5t15.5 47.5z" />
    <glyph glyph-name="seven.numr" 
d="M301 644l-139 -359h-77l139 358h-123v-70h-71v139h271v-68z" />
    <glyph glyph-name="eight.numr" 
d="M299 409q0 -60 -38.5 -94t-97.5 -34t-98 34t-39 94t55 97q-49 33 -49 88t38 88.5t93 33.5t93 -33.5t38 -88.5q0 -56 -49 -88q54 -37 54 -97zM223 410q0 26 -17.5 43.5t-42.5 17.5t-42.5 -17.5t-17.5 -43.5t17.5 -43t42.5 -17t42.5 17t17.5 43zM217 592q0 24 -15 39.5
t-39 15.5t-39 -15.5t-15 -39.5q0 -23 15.5 -39t38.5 -16t38.5 16t15.5 39z" />
    <glyph glyph-name="nine.numr" 
d="M296 584q0 -42 -33 -108l-93 -191h-83l89 177q-13 -5 -33 -5q-45 0 -78.5 34.5t-33.5 91.5q0 61 37.5 97t95.5 36t95 -35.5t37 -96.5zM220 584q0 29 -15.5 46t-40.5 17t-41 -17t-16 -46q0 -28 15.5 -46.5t41.5 -18.5q24 0 40 17.5t16 47.5z" />
    <glyph glyph-name="zero.dnom" 
d="M292 123q0 -59 -37.5 -93t-91.5 -34t-91.5 34t-37.5 93v181q0 59 37.5 93t91.5 34t91.5 -34t37.5 -93v-181zM216 123v180q0 27 -14.5 43.5t-38.5 16.5t-38.5 -16t-14.5 -44v-180q0 -27 14.5 -42.5t38.5 -15.5t38.5 15.5t14.5 42.5z" />
    <glyph glyph-name="one.dnom" 
d="M224 0h-77v341l-87 -76v87l87 75h77v-427z" />
    <glyph glyph-name="two.dnom" 
d="M297 0h-260v69l161 186q22 26 22 52q0 25 -14 40t-39 15q-53 0 -53 -55h-77q0 57 36.5 90.5t93.5 33.5t93.5 -33.5t36.5 -90.5q0 -28 -10.5 -48.5t-35.5 -49.5l-121 -140h167v-69z" />
    <glyph glyph-name="three.dnom" 
d="M302 124q0 -61 -38.5 -94.5t-96.5 -33.5q-57 0 -96.5 31.5t-40.5 94.5h77q1 -28 18 -42.5t42 -14.5q26 0 42 16t16 45q0 28 -16 44t-45 16h-11v66h11q27 0 41.5 15.5t14.5 39.5q0 27 -15.5 41.5t-38.5 14.5t-38 -13.5t-16 -38.5h-76q1 56 38 88.5t92 32.5q57 0 93.5 -34
t36.5 -88q0 -63 -50 -89q56 -29 56 -97z" />
    <glyph glyph-name="four.dnom" 
d="M306 61h-40v-61h-73v61h-174v71l146 295h84l-147 -295h91v83h73v-83h40v-71z" />
    <glyph glyph-name="five.dnom" 
d="M296 143q0 -74 -38 -112q-35 -35 -94 -35q-61 0 -95 34q-29 30 -34 88h76q6 -53 53 -53q23 0 39 14q16 17 16 64q0 78 -53 78q-43 0 -52 -35h-71v241h243v-69h-173v-94q24 21 65 21q51 0 79 -28q39 -39 39 -114z" />
    <glyph glyph-name="six.dnom" 
d="M295 129q0 -61 -37.5 -97t-95.5 -36t-95 35.5t-37 96.5q0 44 32 108l94 191h83l-89 -177q12 5 32 5q46 0 79.5 -34.5t33.5 -91.5zM218 129q0 29 -15 46.5t-41 17.5q-25 0 -40.5 -17t-15.5 -47t15.5 -47.5t40.5 -17.5t40.5 17.5t15.5 47.5z" />
    <glyph glyph-name="seven.dnom" 
d="M301 359l-139 -359h-77l139 358h-123v-70h-71v139h271v-68z" />
    <glyph glyph-name="eight.dnom" 
d="M299 124q0 -60 -38.5 -94t-97.5 -34t-98 34t-39 94t55 97q-49 33 -49 88t38 88.5t93 33.5t93 -33.5t38 -88.5q0 -56 -49 -88q54 -37 54 -97zM223 125q0 26 -17.5 43.5t-42.5 17.5t-42.5 -17.5t-17.5 -43.5q0 -25 17.5 -42.5t42.5 -17.5t42.5 17.5t17.5 42.5zM217 307
q0 24 -15 39.5t-39 15.5t-39 -15.5t-15 -39.5q0 -23 15.5 -39t38.5 -16t38.5 16t15.5 39z" />
    <glyph glyph-name="nine.dnom" 
d="M296 299q0 -42 -33 -108l-93 -191h-83l89 177q-12 -5 -33 -5q-45 0 -78.5 34.5t-33.5 91.5q0 61 37.5 97t95.5 36t95 -35.5t37 -96.5zM220 299q0 29 -15.5 46t-40.5 17t-41 -17t-16 -46q0 -28 15.5 -46.5t41.5 -18.5q24 0 40 18t16 47z" />
    <glyph glyph-name="space.frac" horiz-adv-x="48" 
 />
    <glyph glyph-name="zero.osf" horiz-adv-x="534" 
d="M473 198q0 -93 -59 -148.5t-147 -55.5t-147 55.5t-59 148.5v201q0 93 59 148.5t147 55.5t147 -55.5t59 -148.5v-201zM371 201v195q0 52 -28 84t-76 32t-76 -32t-28 -84v-195q0 -52 28 -84t76 -32t76 32t28 84z" />
    <glyph glyph-name="one.osf" horiz-adv-x="407" 
d="M294 0h-102v486l-140 -122v113l140 120h102v-597z" />
    <glyph glyph-name="two.osf" horiz-adv-x="528" 
d="M471 0h-429v91l242 220q69 63 69 121q0 43 -29 71.5t-74 28.5q-44 0 -74.5 -28t-30.5 -77h-102q0 87 59.5 141.5t147.5 54.5q90 0 147.5 -53.5t57.5 -136.5q0 -51 -27.5 -92t-82.5 -94l-165 -156h291v-91z" />
    <glyph glyph-name="three.osf" horiz-adv-x="526" 
d="M472 85q0 -99 -62 -153t-156 -54q-92 0 -154 50t-65 149h102q3 -54 36 -81t81 -27q51 0 83.5 31.5t32.5 86.5t-30.5 86t-89.5 31h-17v89h17q54 0 81 29t27 80q0 52 -30 81t-75 29q-46 0 -74.5 -27.5t-32.5 -74.5h-102q4 89 62.5 141t146.5 52q91 0 149 -55.5t58 -143.5
q0 -109 -88 -152q100 -44 100 -167z" />
    <glyph glyph-name="four.osf" horiz-adv-x="566" 
d="M526 30h-85v-153h-98v153h-305v95l253 510h109l-253 -510h196v176h98v-176h85v-95z" />
    <glyph glyph-name="five.osf" horiz-adv-x="535" 
d="M477 123q0 -65 -12 -109t-48 -80q-56 -56 -150 -56q-96 0 -151 55q-48 48 -55 136h102q13 -99 104 -99q47 0 75 28q33 33 33 125q0 71 -23 110t-80 39q-41 0 -67 -18t-35 -46h-92v389h383v-91h-291v-188q39 41 117 41q82 0 128 -46q62 -62 62 -190z" />
    <glyph glyph-name="six.osf" horiz-adv-x="538" 
d="M492 223q0 -103 -62 -166t-161 -63q-100 0 -161.5 60t-61.5 164q0 95 61 204l171 306h109l-175 -303q33 17 82 17q86 0 142 -60t56 -159zM390 220q0 60 -32.5 99.5t-88.5 39.5q-54 0 -87.5 -38t-33.5 -101t33.5 -100.5t87.5 -37.5t87.5 37.5t33.5 100.5z" />
    <glyph glyph-name="seven.osf" horiz-adv-x="528" 
d="M493 506l-276 -626h-109l276 626h-241v-112h-98v203h448v-91z" />
    <glyph glyph-name="eight.osf" horiz-adv-x="549" 
d="M494 201q0 -94 -63 -150.5t-157 -56.5t-156.5 56.5t-62.5 150.5q0 108 98 167q-87 53 -87 153q0 88 59.5 142.5t148.5 54.5t148.5 -54.5t59.5 -142.5q0 -101 -86 -153q98 -59 98 -167zM392 203q0 50 -34.5 84.5t-83.5 34.5t-83 -34.5t-34 -84.5t34 -84t83 -34
q50 0 84 34.5t34 83.5zM380 518q0 47 -30 78t-76 31t-76 -31t-30 -78t30 -77.5t76 -30.5t76 30.5t30 77.5z" />
    <glyph glyph-name="nine.osf" horiz-adv-x="538" 
d="M492 379q0 -97 -60 -204l-172 -306h-109l175 303q-33 -17 -81 -17q-86 0 -142.5 60t-56.5 159q0 103 62 166t161 63q100 0 161.5 -60t61.5 -164zM390 377q0 63 -33.5 100.5t-87.5 37.5t-87.5 -37.5t-33.5 -100.5q0 -60 32.5 -99.5t88.5 -39.5q54 0 87.5 38t33.5 101z" />
    <glyph glyph-name="zero.lf" horiz-adv-x="533" 
d="M472 198q0 -93 -59 -148.5t-147 -55.5q-87 0 -146 55.5t-59 148.5v316q0 93 59 148.5t146 55.5q88 0 147 -55.5t59 -148.5v-316zM370 201v310q0 52 -28 84t-76 32t-75.5 -31.5t-27.5 -84.5v-310q0 -53 27.5 -84.5t75.5 -31.5t76 32t28 84z" />
    <glyph glyph-name="one.lf" horiz-adv-x="404" 
d="M293 0h-102v601l-139 -122v113l139 120h102v-712z" />
    <glyph glyph-name="two.lf" horiz-adv-x="509" 
d="M456 0h-414v91l274 333q38 46 38 95t-27.5 78.5t-76.5 29.5q-45 0 -75 -27t-30 -83h-102q0 90 58 145.5t149 55.5q92 0 149 -54.5t57 -145.5q0 -44 -15.5 -76.5t-51.5 -77.5l-223 -273h290v-91z" />
    <glyph glyph-name="three.lf" horiz-adv-x="523" 
d="M471 200q0 -99 -62 -153t-156 -54q-92 0 -153.5 50.5t-64.5 149.5h102q3 -54 35.5 -81t80.5 -27q51 0 83.5 31.5t32.5 86.5t-30 86t-89 31h-17v89h17q54 0 81 29t27 79q0 52 -30 81t-75 29q-46 0 -74.5 -27.5t-32.5 -74.5h-102q4 89 63 141.5t146 52.5q91 0 149 -55.5
t58 -143.5q0 -108 -89 -152q100 -44 100 -168z" />
    <glyph glyph-name="four.lf" horiz-adv-x="541" 
d="M501 107h-76v-107h-99v107h-288v95l251 510h110l-250 -510h177v166h99v-166h76v-95z" />
    <glyph glyph-name="five.lf" horiz-adv-x="533" 
d="M475 238q0 -65 -12 -109t-48 -80q-56 -56 -150 -56q-97 0 -152 55q-47 47 -54 136h102q13 -99 104 -99q46 0 74 28q34 34 34 125q0 149 -104 149q-81 0 -101 -64h-93v389h384v-91h-292v-188q39 41 118 41q82 0 128 -46q62 -62 62 -190z" />
    <glyph glyph-name="six.lf" horiz-adv-x="507" 
d="M464 211q0 -98 -58.5 -157.5t-151.5 -59.5q-94 0 -152.5 57.5t-58.5 155.5q0 69 53 175l162 330h109l-153 -306q26 11 63 11q79 0 133 -57t54 -149zM362 209q0 54 -29.5 88.5t-79.5 34.5q-49 0 -78.5 -33t-29.5 -90t30 -90.5t78 -33.5q49 0 79 34t30 90z" />
    <glyph glyph-name="seven.lf" horiz-adv-x="501" 
d="M466 621l-238 -621h-110l239 621h-217v-112h-98v203h424v-91z" />
    <glyph glyph-name="eight.lf" horiz-adv-x="549" 
d="M494 201q0 -94 -63 -150.5t-157 -56.5t-156.5 56.5t-62.5 150.5q0 108 98 167q-86 52 -86 153q0 88 59 142.5t148 54.5t148.5 -54.5t59.5 -142.5q0 -101 -86 -153q98 -59 98 -167zM391 203q0 50 -34 84.5t-83 34.5t-83 -34.5t-34 -84.5t34 -84t83 -34t83 34t34 84z
M380 518q0 47 -30 78t-76 31t-75.5 -31t-29.5 -78t29.5 -77.5t75.5 -30.5t76 30.5t30 77.5z" />
    <glyph glyph-name="nine.lf" horiz-adv-x="507" 
d="M464 505q0 -69 -53 -175l-162 -330h-109l153 306q-26 -11 -64 -11q-79 0 -132.5 57t-53.5 149q0 98 58.5 157.5t151.5 59.5q94 0 152.5 -57.5t58.5 -155.5zM362 503q0 56 -30 90t-79 34q-48 0 -78 -33.5t-30 -90.5q0 -54 29 -88.5t79 -34.5q49 0 79 33t30 90z" />
    <glyph glyph-name="zero.tosf" horiz-adv-x="533" 
d="M473 198q0 -93 -59 -148.5t-147 -55.5t-147 55.5t-59 148.5v201q0 93 59 148.5t147 55.5t147 -55.5t59 -148.5v-201zM371 201v195q0 52 -28 84t-76 32t-76 -32t-28 -84v-195q0 -52 28 -84t76 -32t76 32t28 84z" />
    <glyph glyph-name="one.tosf" horiz-adv-x="533" 
d="M356 0h-102v486l-140 -122v113l140 120h102v-597z" />
    <glyph glyph-name="two.tosf" horiz-adv-x="533" 
d="M484 0h-429v91l242 220q69 63 69 121q0 43 -29 71.5t-74 28.5q-44 0 -74.5 -28t-30.5 -77h-102q0 87 59.5 141.5t147.5 54.5q90 0 147.5 -53.5t57.5 -136.5q0 -51 -27.5 -92t-82.5 -94l-165 -156h291v-91z" />
    <glyph glyph-name="three.tosf" horiz-adv-x="533" 
d="M479 85q0 -99 -62 -153t-156 -54q-92 0 -154 50t-65 149h102q3 -54 36 -81t81 -27q51 0 83.5 31.5t32.5 86.5t-30.5 86t-89.5 31h-17v89h17q54 0 81 29t27 80q0 52 -30 81t-75 29q-46 0 -74.5 -27.5t-32.5 -74.5h-102q4 89 62.5 141t146.5 52q91 0 149 -55.5t58 -143.5
q0 -109 -88 -152q100 -44 100 -167z" />
    <glyph glyph-name="four.tosf" horiz-adv-x="533" 
d="M500 30h-76v-153h-99v153h-288v95l251 510h110l-250 -510h177v166h99v-166h76v-95z" />
    <glyph glyph-name="five.tosf" horiz-adv-x="533" 
d="M476 123q0 -65 -12 -109t-48 -80q-56 -56 -150 -56q-96 0 -151 55q-48 48 -55 136h102q13 -99 104 -99q47 0 75 28q33 33 33 125q0 71 -23 110t-80 39q-41 0 -67 -18t-35 -46h-92v389h383v-91h-291v-188q39 41 117 41q82 0 128 -46q62 -62 62 -190z" />
    <glyph glyph-name="six.tosf" horiz-adv-x="533" 
d="M491 223q0 -103 -62 -166t-161 -63q-100 0 -161.5 60t-61.5 164q0 95 61 204l171 306h109l-175 -303q33 17 82 17q86 0 142 -60t56 -159zM389 220q0 60 -32.5 99.5t-88.5 39.5q-54 0 -87.5 -38t-33.5 -101t33.5 -100.5t87.5 -37.5t87.5 37.5t33.5 100.5z" />
    <glyph glyph-name="seven.tosf" horiz-adv-x="533" 
d="M496 506l-276 -626h-109l276 626h-241v-112h-98v203h448v-91z" />
    <glyph glyph-name="eight.tosf" horiz-adv-x="533" 
d="M486 201q0 -94 -63 -150.5t-157 -56.5t-156.5 56.5t-62.5 150.5q0 108 98 167q-87 53 -87 153q0 88 59.5 142.5t148.5 54.5t148.5 -54.5t59.5 -142.5q0 -101 -86 -153q98 -59 98 -167zM384 203q0 50 -34.5 84.5t-83.5 34.5t-83 -34.5t-34 -84.5t34 -84t83 -34
q50 0 84 34.5t34 83.5zM372 518q0 47 -30 78t-76 31t-76 -31t-30 -78t30 -77.5t76 -30.5t76 30.5t30 77.5z" />
    <glyph glyph-name="nine.tosf" horiz-adv-x="533" 
d="M488 379q0 -97 -60 -204l-172 -306h-109l175 303q-33 -17 -81 -17q-86 0 -142.5 60t-56.5 159q0 103 62 166t161 63q100 0 161.5 -60t61.5 -164zM386 377q0 63 -33.5 100.5t-87.5 37.5t-87.5 -37.5t-33.5 -100.5q0 -60 32.5 -99.5t88.5 -39.5q54 0 87.5 38t33.5 101z" />
    <glyph glyph-name="uni2007.tosf" horiz-adv-x="533" 
 />
    <glyph glyph-name="hyphen.case" horiz-adv-x="426" 
d="M359 308h-292v95h292v-95z" />
    <glyph glyph-name="exclamdown.case" horiz-adv-x="332" 
d="M211 0h-124l22 500h80zM205 603h-112v109h112v-109z" />
    <glyph glyph-name="guillemotleft.case" horiz-adv-x="592" 
d="M267 126l-230 230l230 229v-123l-107 -106l107 -107v-123zM520 126l-230 230l230 229v-123l-108 -106l108 -107v-123z" />
    <glyph glyph-name="uni00AD.case" horiz-adv-x="426" 
d="M359 308h-292v95h292v-95z" />
    <glyph glyph-name="guillemotright.case" horiz-adv-x="592" 
d="M556 356l-231 -230v123l107 107l-107 106v123zM303 356l-231 -230v123l108 107l-108 106v123z" />
    <glyph glyph-name="questiondown.case" horiz-adv-x="511" 
d="M440 186q0 -84 -57 -138t-143 -54q-84 0 -141.5 53t-57.5 139q0 59 47 123l78 108q18 25 18 54v30h102v-36q0 -52 -35 -99l-77 -105q-31 -41 -31 -76q0 -43 27 -71t70 -28q45 0 71.5 29t26.5 71h102zM291 603h-112v109h112v-109z" />
    <glyph glyph-name="endash.case" horiz-adv-x="533" 
d="M482 308h-431v95h431v-95z" />
    <glyph glyph-name="emdash.case" horiz-adv-x="972" 
d="M905 307h-838v97h838v-97z" />
    <glyph glyph-name="afii00208.case" horiz-adv-x="972" 
d="M905 307h-838v97h838v-97z" />
    <glyph glyph-name="guilsinglleft.case" horiz-adv-x="339" 
d="M267 126l-230 230l230 229v-123l-107 -106l107 -107v-123z" />
    <glyph glyph-name="guilsinglright.case" horiz-adv-x="339" 
d="M303 356l-231 -230v123l108 107l-108 106v123z" />
    <glyph glyph-name="caroncomma.ss01" horiz-adv-x="537" 
d="M656 612l-91 -76v198h91v-122z" />
    <glyph glyph-name="commaaccent.ss01" horiz-adv-x="272" 
d="M193 -133q0 -43 -30 -71t-78 -28v55q20 0 33 13t13 31t-13 31t-33 13v55q48 0 78 -28t30 -71z" />
    <glyph glyph-name="commaturn.ss01" horiz-adv-x="272" 
d="M196 569q-48 0 -78 27.5t-30 70.5t30 71t78 28v-55q-20 0 -33 -13t-13 -31t13 -31t33 -13v-54z" />
    <glyph glyph-name="exclam.ss01" horiz-adv-x="332" 
d="M245 712l-23 -500h-77l-24 500h124zM248 62q0 -27 -19 -46t-46 -19t-46 19t-19 46t19 46t46 19t46 -19t19 -46z" />
    <glyph glyph-name="period.ss01" horiz-adv-x="284" 
d="M215 70q0 -30 -21.5 -51.5t-51.5 -21.5t-51.5 21.5t-21.5 51.5t21.5 51t51.5 21t51.5 -21t21.5 -51z" />
    <glyph glyph-name="colon.ss01" horiz-adv-x="310" 
d="M240 347q0 -30 -21 -51.5t-51 -21.5t-51.5 21.5t-21.5 51.5t21.5 51.5t51.5 21.5t51 -21.5t21 -51.5zM240 70q0 -30 -21 -51.5t-51 -21.5t-51.5 21.5t-21.5 51.5t21.5 51t51.5 21t51 -21t21 -51z" />
    <glyph glyph-name="semicolon.ss01" horiz-adv-x="303" 
d="M226 -60l-116 -95v271h116v-176zM240 347q0 -30 -21 -51.5t-51 -21.5t-51.5 21.5t-21.5 51.5t21.5 51.5t51.5 21.5t51 -21.5t21 -51.5z" />
    <glyph glyph-name="question.ss01" horiz-adv-x="511" 
d="M470 527q0 -57 -48 -123l-77 -108q-18 -25 -18 -54v-30h-102v35q0 54 34 99l78 105q31 41 31 76q0 43 -27.5 71.5t-70.5 28.5q-45 0 -71 -29.5t-26 -71.5h-102q0 84 57 138t142 54q84 0 142 -52.5t58 -138.5zM340 62q0 -27 -19 -46t-46 -19t-45.5 19t-18.5 46t18.5 46
t45.5 19t46 -19t19 -46z" />
    <glyph glyph-name="at.ss01" horiz-adv-x="960" 
d="M903 330q0 -122 -84.5 -209.5t-212.5 -87.5h-84l11 52q-52 -58 -118 -58q-65 0 -102.5 36.5t-37.5 100.5q0 31 11 90q13 68 31 111.5t52 72.5q50 43 118 43q80 0 110 -59l10 53h92l-75 -379q90 4 144.5 72.5t54.5 161.5q0 128 -84.5 207t-220.5 79q-154 0 -260.5 -106.5
t-106.5 -260.5q0 -167 101 -267.5t272 -100.5h63l-14 -69h-63q-196 0 -319.5 123t-123.5 314q0 187 130.5 314.5t320.5 127.5q172 0 278.5 -100.5t106.5 -260.5zM569 322q0 39 -20 58t-50 19q-39 0 -67 -26q-36 -34 -52 -120q-8 -46 -8 -67q0 -39 19.5 -58t49.5 -19
q40 0 69 27q35 33 51 119q8 46 8 67z" />
    <glyph glyph-name="C.ss01" horiz-adv-x="574" 
d="M522 79q-87 -85 -199 -85t-184 72q-48 49 -60 106.5t-12 183.5t12 183.5t60 106.5q72 72 184 72t199 -85l-72 -71q-31 31 -58.5 45.5t-68.5 14.5q-64 0 -105 -44q-27 -28 -35 -71.5t-8 -150.5t8 -150.5t35 -71.5q41 -44 105 -44q41 0 68.5 14.5t58.5 45.5z" />
    <glyph glyph-name="G.ss01" horiz-adv-x="641" 
d="M580 277q0 -71 -14.5 -118t-48.5 -83q-77 -82 -194 -82q-112 0 -184 72q-48 49 -60 106.5t-12 183.5t12 183.5t60 106.5q72 72 184 72q69 0 117 -22t98 -72l-73 -73q-38 38 -67.5 54.5t-74.5 16.5q-64 0 -106 -44q-26 -28 -34 -71.5t-8 -150.5t8 -150.5t34 -71.5
q42 -44 106 -44q71 0 114 51q35 39 35 113v39h-149v92h257v-108z" />
    <glyph glyph-name="i.ss01" horiz-adv-x="264" 
d="M183 0h-102v507h102v-507zM198 672q0 -27 -19.5 -46.5t-46.5 -19.5t-46.5 19.5t-19.5 46.5t19.5 46.5t46.5 19.5t46.5 -19.5t19.5 -46.5z" />
    <glyph glyph-name="j.ss01" horiz-adv-x="264" 
d="M183 -67q0 -61 -35 -100.5t-104 -39.5h-63v87h45q30 0 42.5 14.5t12.5 44.5v568h102v-574zM198 672q0 -27 -19.5 -46.5t-46.5 -19.5t-46.5 19.5t-19.5 46.5t19.5 46.5t46.5 19.5t46.5 -19.5t19.5 -46.5z" />
    <glyph glyph-name="exclamdown.ss01" horiz-adv-x="332" 
d="M229 -205h-124l23 500h77zM232 445q0 -27 -19 -45.5t-46 -18.5t-46 18.5t-19 45.5t19 46t46 19t46 -19t19 -46z" />
    <glyph glyph-name="dieresis.ss01" horiz-adv-x="500" 
d="M416 657q0 -23 -16.5 -40t-39.5 -17t-40 17t-17 40t17 39.5t40 16.5t39.5 -16.5t16.5 -39.5zM197 657q0 -23 -17 -40t-40 -17t-39.5 17t-16.5 40t16.5 39.5t39.5 16.5t40 -16.5t17 -39.5z" />
    <glyph glyph-name="periodcentered.ss01" horiz-adv-x="284" 
d="M215 276q0 -30 -21.5 -51.5t-51.5 -21.5t-51.5 21.5t-21.5 51.5t21.5 51t51.5 21t51.5 -21t21.5 -51z" />
    <glyph glyph-name="cedilla.ss01" horiz-adv-x="500" 
d="M324 -133q0 -43 -30 -71t-78 -28v55q20 0 33 13t13 31t-13 31t-33 13v55q48 0 78 -28t30 -71z" />
    <glyph glyph-name="questiondown.ss01" horiz-adv-x="511" 
d="M453 -19q0 -84 -57 -138t-142 -54q-84 0 -141.5 53t-57.5 139q0 59 47 123l77 108q18 25 18 54v30h102v-36q0 -54 -34 -99l-78 -105q-30 -40 -30 -76q0 -43 27 -71t70 -28q45 0 71 29t26 71h102zM314 445q0 -27 -19 -45.5t-46 -18.5t-46 18.5t-19 45.5t19 46t46 19
t46 -19t19 -46z" />
    <glyph glyph-name="Adieresis.ss01" horiz-adv-x="625" 
d="M617 0h-115l-49 143h-281l-49 -143h-115l261 712h87zM423 235l-108 316l-111 -316h219zM474 839q0 -23 -16.5 -40t-39.5 -17t-40 17t-17 40t17 39.5t40 16.5t39.5 -16.5t16.5 -39.5zM255 839q0 -23 -17 -40t-40 -17t-39.5 17t-16.5 40t16.5 39.5t39.5 16.5t40 -16.5
t17 -39.5z" />
    <glyph glyph-name="Ccedilla.ss01" horiz-adv-x="574" 
d="M522 79q-87 -85 -199 -85t-184 72q-48 49 -60 106.5t-12 183.5t12 183.5t60 106.5q72 72 184 72t199 -85l-72 -71q-31 31 -58.5 45.5t-68.5 14.5q-64 0 -105 -44q-27 -28 -35 -71.5t-8 -150.5t8 -150.5t35 -71.5q41 -44 105 -44q41 0 68.5 14.5t58.5 45.5zM373 -133
q0 -43 -30 -71t-78 -28v55q20 0 33 13t13 31t-13 31t-33 13v55q48 0 78 -28t30 -71z" />
    <glyph glyph-name="Edieresis.ss01" horiz-adv-x="603" 
d="M548 0h-455v712h455v-97h-347v-208h296v-96h-296v-214h347v-97zM477 839q0 -23 -16.5 -40t-39.5 -17t-40 17t-17 40t17 39.5t40 16.5t39.5 -16.5t16.5 -39.5zM258 839q0 -23 -17 -40t-40 -17t-39.5 17t-16.5 40t16.5 39.5t39.5 16.5t40 -16.5t17 -39.5z" />
    <glyph glyph-name="Idieresis.ss01" horiz-adv-x="294" 
d="M201 0h-108v712h108v-712zM316 839q0 -23 -16.5 -40t-39.5 -17t-40 17t-17 40t17 39.5t40 16.5t39.5 -16.5t16.5 -39.5zM97 839q0 -23 -17 -40t-40 -17t-39.5 17t-16.5 40t16.5 39.5t39.5 16.5t40 -16.5t17 -39.5z" />
    <glyph glyph-name="Odieresis.ss01" horiz-adv-x="646" 
d="M579 356q0 -127 -11.5 -184t-60.5 -106q-72 -72 -184 -72t-184 72q-49 49 -60.5 106t-11.5 184t11.5 184t60.5 106q72 72 184 72t184 -72q49 -49 60.5 -106t11.5 -184zM471 356q0 108 -8 151.5t-34 70.5q-42 44 -106 44t-106 -44q-26 -28 -34 -71.5t-8 -150.5t8 -150
t34 -71q43 -45 106 -45t106 45q26 27 34 70t8 151zM489 839q0 -23 -16.5 -40t-39.5 -17t-40 17t-17 40t17 39.5t40 16.5t39.5 -16.5t16.5 -39.5zM270 839q0 -23 -17 -40t-40 -17t-39.5 17t-16.5 40t16.5 39.5t39.5 16.5t40 -16.5t17 -39.5z" />
    <glyph glyph-name="Udieresis.ss01" horiz-adv-x="675" 
d="M593 240q0 -109 -73 -177.5t-183 -68.5t-182.5 68.5t-72.5 177.5v472h108v-467q0 -71 40 -112.5t107 -41.5t107.5 41.5t40.5 112.5v467h108v-472zM503 839q0 -23 -16.5 -40t-39.5 -17t-40 17t-17 40t17 39.5t40 16.5t39.5 -16.5t16.5 -39.5zM284 839q0 -23 -17 -40
t-40 -17t-39.5 17t-16.5 40t16.5 39.5t39.5 16.5t40 -16.5t17 -39.5z" />
    <glyph glyph-name="adieresis.ss01" horiz-adv-x="530" 
d="M454 0h-100v46q-28 -28 -58.5 -40t-76.5 -12q-90 0 -136 46q-40 42 -40 109q0 66 45.5 106t130.5 40h133v36q0 49 -26 72t-85 23q-40 0 -64.5 -11.5t-46.5 -38.5l-66 63q35 41 75.5 57.5t105.5 16.5q209 0 209 -174v-339zM352 183v41h-117q-93 0 -93 -73q0 -72 96 -72
q61 0 92 29q22 21 22 75zM422 657q0 -23 -16.5 -40t-39.5 -17t-40 17t-17 40t17 39.5t40 16.5t39.5 -16.5t16.5 -39.5zM203 657q0 -23 -17 -40t-40 -17t-39.5 17t-16.5 40t16.5 39.5t39.5 16.5t40 -16.5t17 -39.5z" />
    <glyph glyph-name="ccedilla.ss01" horiz-adv-x="485" 
d="M448 66q-68 -72 -167 -72q-45 0 -84 14.5t-71.5 44t-51.5 81t-19 120.5t19 120.5t51.5 81t71.5 43.5t84 14q100 0 167 -71l-70 -68q-24 26 -45.5 37t-51.5 11q-60 0 -94 -45q-30 -38 -30 -123q0 -86 30 -124q34 -45 94 -45q30 0 51.5 11t45.5 37zM324 -133q0 -43 -30 -71
t-78 -28v55q20 0 33 13t13 31t-13 31t-33 13v55q48 0 78 -28t30 -71z" />
    <glyph glyph-name="edieresis.ss01" horiz-adv-x="539" 
d="M485 224h-329q0 -67 33.5 -104.5t95.5 -37.5q41 0 68 12t55 40l65 -61q-41 -41 -83.5 -60t-106.5 -19q-104 0 -166 62t-62 198q0 122 58 190.5t157 68.5q101 0 158 -67t57 -179v-43zM384 295q-3 45 -14 69q-29 64 -100 64q-72 0 -101 -64q-12 -26 -13 -69h228zM439 657
q0 -23 -16.5 -40t-39.5 -17t-40 17t-17 40t17 39.5t40 16.5t39.5 -16.5t16.5 -39.5zM220 657q0 -23 -17 -40t-40 -17t-39.5 17t-16.5 40t16.5 39.5t39.5 16.5t40 -16.5t17 -39.5z" />
    <glyph glyph-name="idieresis.ss01" horiz-adv-x="264" 
d="M183 0h-102v507h102v-507zM297 657q0 -23 -16.5 -40t-39.5 -17t-40 17t-17 40t17 39.5t40 16.5t39.5 -16.5t16.5 -39.5zM78 657q0 -23 -17 -40t-40 -17t-39.5 17t-16.5 40t16.5 39.5t39.5 16.5t40 -16.5t17 -39.5z" />
    <glyph glyph-name="odieresis.ss01" horiz-adv-x="537" 
d="M480 254q0 -138 -60 -200q-58 -60 -152 -60q-93 0 -151 60q-60 62 -60 200q0 69 13 116.5t47 82.5q58 60 151 60q94 0 152 -60q34 -35 47 -82.5t13 -116.5zM378 254q0 104 -35 139q-29 29 -75 29q-45 0 -74 -29q-35 -35 -35 -139t35 -139q30 -30 74 -30q45 0 75 30
q35 35 35 139zM433 657q0 -23 -16.5 -40t-39.5 -17t-40 17t-17 40t17 39.5t40 16.5t39.5 -16.5t16.5 -39.5zM214 657q0 -23 -17 -40t-40 -17t-39.5 17t-16.5 40t16.5 39.5t39.5 16.5t40 -16.5t17 -39.5z" />
    <glyph glyph-name="divide.ss01" horiz-adv-x="533" 
d="M484 230h-436v95h436v-95zM339 84q0 -30 -21.5 -51.5t-51.5 -21.5t-51 21.5t-21 51.5t21 51.5t51 21.5t51.5 -21.5t21.5 -51.5zM339 471q0 -30 -21.5 -51t-51.5 -21t-51 21t-21 51t21 51.5t51 21.5t51.5 -21.5t21.5 -51.5z" />
    <glyph glyph-name="udieresis.ss01" horiz-adv-x="568" 
d="M487 0h-100v51q-53 -57 -135 -57q-77 0 -125 46q-51 50 -51 143v324h102v-309q0 -56 28 -84.5t74 -28.5t75.5 28.5t29.5 84.5v309h102v-507zM447 657q0 -23 -16.5 -40t-39.5 -17t-40 17t-17 40t17 39.5t40 16.5t39.5 -16.5t16.5 -39.5zM228 657q0 -23 -17 -40t-40 -17
t-39.5 17t-16.5 40t16.5 39.5t39.5 16.5t40 -16.5t17 -39.5z" />
    <glyph glyph-name="ydieresis.ss01" horiz-adv-x="468" 
d="M464 507l-224 -608q-14 -40 -37 -63q-37 -37 -104 -37h-41v92h26q32 0 47 11.5t26 42.5l28 79l-177 483h108l121 -357l118 357h109zM399 657q0 -23 -16.5 -40t-39.5 -17t-40 17t-17 40t17 39.5t40 16.5t39.5 -16.5t16.5 -39.5zM180 657q0 -23 -17 -40t-40 -17t-39.5 17
t-16.5 40t16.5 39.5t39.5 16.5t40 -16.5t17 -39.5z" />
    <glyph glyph-name="Aogonek.ss01" horiz-adv-x="625" 
d="M617 0h-115l-49 143h-281l-49 -143h-115l261 712h87zM423 235l-108 316l-111 -316h219zM605 -232q-48 0 -78 28t-30 71t30 71t78 28v-55q-20 0 -33 -13t-13 -31t13 -31t33 -13v-55z" />
    <glyph glyph-name="aogonek.ss01" horiz-adv-x="530" 
d="M454 0h-100v46q-28 -28 -58.5 -40t-76.5 -12q-90 0 -136 46q-40 42 -40 109q0 66 45.5 106t130.5 40h133v36q0 49 -26 72t-85 23q-40 0 -64.5 -11.5t-46.5 -38.5l-66 63q35 41 75.5 57.5t105.5 16.5q209 0 209 -174v-339zM352 183v41h-117q-93 0 -93 -73q0 -72 96 -72
q61 0 92 29q22 21 22 75zM442 -232q-48 0 -78 28t-30 71t30 71t78 28v-55q-20 0 -33 -13t-13 -31t13 -31t33 -13v-55z" />
    <glyph glyph-name="Cacute.ss01" horiz-adv-x="574" 
d="M522 79q-87 -85 -199 -85t-184 72q-48 49 -60 106.5t-12 183.5t12 183.5t60 106.5q72 72 184 72t199 -85l-72 -71q-31 31 -58.5 45.5t-68.5 14.5q-64 0 -105 -44q-27 -28 -35 -71.5t-8 -150.5t8 -150.5t35 -71.5q41 -44 105 -44q41 0 68.5 14.5t58.5 45.5zM440 943
l-111 -162h-77l75 162h113z" />
    <glyph glyph-name="Ccircumflex.ss01" horiz-adv-x="574" 
d="M522 79q-87 -85 -199 -85t-184 72q-48 49 -60 106.5t-12 183.5t12 183.5t60 106.5q72 72 184 72t199 -85l-72 -71q-31 31 -58.5 45.5t-68.5 14.5q-64 0 -105 -44q-27 -28 -35 -71.5t-8 -150.5t8 -150.5t35 -71.5q41 -44 105 -44q41 0 68.5 14.5t58.5 45.5zM495 781h-85
l-87 97l-87 -97h-85l129 161h86z" />
    <glyph glyph-name="Cdotaccent.ss01" horiz-adv-x="574" 
d="M522 79q-87 -85 -199 -85t-184 72q-48 49 -60 106.5t-12 183.5t12 183.5t60 106.5q72 72 184 72t199 -85l-72 -71q-31 31 -58.5 45.5t-68.5 14.5q-64 0 -105 -44q-27 -28 -35 -71.5t-8 -150.5t8 -150.5t35 -71.5q41 -44 105 -44q41 0 68.5 14.5t58.5 45.5zM373 840
q0 -23 -17 -40t-40 -17t-40 17t-17 40t17 40t40 17t40 -17t17 -40z" />
    <glyph glyph-name="cdotaccent.ss01" horiz-adv-x="493" 
d="M448 66q-68 -72 -167 -72q-45 0 -84 14.5t-71.5 44t-51.5 81t-19 120.5t19 120.5t51.5 81t71.5 43.5t84 14q100 0 167 -71l-70 -68q-24 26 -45.5 37t-51.5 11q-60 0 -94 -45q-30 -38 -30 -123q0 -86 30 -124q34 -45 94 -45q30 0 51.5 11t45.5 37zM337 664
q0 -23 -16.5 -40t-39.5 -17q-24 0 -40.5 16.5t-16.5 39.5q0 24 16.5 40.5t39.5 16.5t40 -16.5t17 -39.5z" />
    <glyph glyph-name="Ccaron.ss01" horiz-adv-x="574" 
d="M522 79q-87 -85 -199 -85t-184 72q-48 49 -60 106.5t-12 183.5t12 183.5t60 106.5q72 72 184 72t199 -85l-72 -71q-31 31 -58.5 45.5t-68.5 14.5q-64 0 -105 -44q-27 -28 -35 -71.5t-8 -150.5t8 -150.5t35 -71.5q41 -44 105 -44q41 0 68.5 14.5t58.5 45.5zM495 942
l-129 -161h-86l-129 161h85l87 -97l87 97h85z" />
    <glyph glyph-name="dcaron.ss01" horiz-adv-x="553" 
d="M472 0h-100v54q-50 -60 -134 -60q-79 0 -124 45q-57 58 -57 215q0 156 57 214q45 45 123 45q85 0 133 -57v256h102v-712zM370 254q0 38 -3.5 65t-14 52t-32.5 38t-55 13q-34 0 -56 -13t-32.5 -38t-14 -52t-3.5 -65t3.5 -65t14 -52.5t33 -38.5t55.5 -13t55 13t32.5 38.5
t14 52.5t3.5 65zM656 612l-91 -76v198h91v-122z" />
    <glyph glyph-name="Edotaccent.ss01" horiz-adv-x="602" 
d="M548 0h-455v712h455v-97h-347v-208h296v-96h-296v-214h347v-97zM365 840q0 -23 -17 -40t-40 -17t-40 17t-17 40t17 40t40 17t40 -17t17 -40z" />
    <glyph glyph-name="edotaccent.ss01" horiz-adv-x="539" 
d="M485 224h-329q0 -67 33.5 -104.5t95.5 -37.5q41 0 68 12t55 40l65 -61q-41 -41 -83.5 -60t-106.5 -19q-104 0 -166 62t-62 198q0 122 58 190.5t157 68.5q101 0 158 -67t57 -179v-43zM384 295q-3 45 -14 69q-29 64 -100 64q-72 0 -101 -64q-12 -26 -13 -69h228zM334 673
q0 -28 -19 -47t-46 -19t-46.5 19t-19.5 46t19.5 46.5t46.5 19.5t46 -19.5t19 -45.5z" />
    <glyph glyph-name="Eogonek.ss01" horiz-adv-x="603" 
d="M548 0h-455v712h455v-97h-347v-208h296v-96h-296v-214h347v-97zM532 -232q-48 0 -78 28t-30 71t30 71t78 28v-55q-20 0 -33 -13t-13 -31t13 -31t33 -13v-55z" />
    <glyph glyph-name="eogonek.ss01" horiz-adv-x="539" 
d="M485 224h-329q0 -67 33.5 -104.5t95.5 -37.5q41 0 68 12t55 40l65 -61q-41 -41 -83.5 -60t-106.5 -19q-104 0 -166 62t-62 198q0 122 58 190.5t157 68.5q101 0 158 -67t57 -179v-43zM384 295q-3 45 -14 69q-29 64 -100 64q-72 0 -101 -64q-12 -26 -13 -69h228zM439 -232
q-48 0 -78 28t-30 71t30 71t78 28v-55q-20 0 -33 -13t-13 -31t13 -31t33 -13v-55z" />
    <glyph glyph-name="Gcircumflex.ss01" horiz-adv-x="641" 
d="M580 277q0 -71 -14.5 -118t-48.5 -83q-77 -82 -194 -82q-112 0 -184 72q-48 49 -60 106.5t-12 183.5t12 183.5t60 106.5q72 72 184 72q69 0 117 -22t98 -72l-73 -73q-38 38 -67.5 54.5t-74.5 16.5q-64 0 -106 -44q-26 -28 -34 -71.5t-8 -150.5t8 -150.5t34 -71.5
q42 -44 106 -44q71 0 114 51q35 39 35 113v39h-149v92h257v-108zM495 781h-85l-87 97l-87 -97h-85l129 161h86z" />
    <glyph glyph-name="Gbreve.ss01" horiz-adv-x="641" 
d="M580 277q0 -71 -14.5 -118t-48.5 -83q-77 -82 -194 -82q-112 0 -184 72q-48 49 -60 106.5t-12 183.5t12 183.5t60 106.5q72 72 184 72q69 0 117 -22t98 -72l-73 -73q-38 38 -67.5 54.5t-74.5 16.5q-64 0 -106 -44q-26 -28 -34 -71.5t-8 -150.5t8 -150.5t34 -71.5
q42 -44 106 -44q71 0 114 51q35 39 35 113v39h-149v92h257v-108zM488 937q-4 -73 -48 -109t-117 -36t-117 36t-48 109h72q4 -34 29.5 -52.5t63.5 -18.5t63.5 18.5t29.5 52.5h72z" />
    <glyph glyph-name="Gdotaccent.ss01" horiz-adv-x="641" 
d="M580 277q0 -71 -14.5 -118t-48.5 -83q-77 -82 -194 -82q-112 0 -184 72q-48 49 -60 106.5t-12 183.5t12 183.5t60 106.5q72 72 184 72q69 0 117 -22t98 -72l-73 -73q-38 38 -67.5 54.5t-74.5 16.5q-64 0 -106 -44q-26 -28 -34 -71.5t-8 -150.5t8 -150.5t34 -71.5
q42 -44 106 -44q71 0 114 51q35 39 35 113v39h-149v92h257v-108zM379 840q0 -23 -17 -40t-40 -17t-40 17t-17 40t17 40t40 17t40 -17t17 -40z" />
    <glyph glyph-name="gdotaccent.ss01" horiz-adv-x="540" 
d="M468 3q0 -95 -58.5 -154.5t-158.5 -59.5q-58 0 -98.5 15t-80.5 52l65 65q48 -45 110 -45q61 0 90 36.5t29 92.5v65q-49 -58 -131 -58q-76 0 -121 45q-34 34 -45.5 83t-11.5 123t11.5 123t45.5 83q44 44 122 44q83 0 133 -60v54h99v-504zM366 263q0 35 -3.5 59.5t-13.5 49
t-31.5 37.5t-54.5 13t-55 -13t-32 -37.5t-13.5 -49.5t-3.5 -59t3.5 -59t13.5 -49.5t32 -37.5t55 -13t54.5 13t31.5 37.5t13.5 49t3.5 59.5zM320 664q0 -23 -16.5 -40t-39.5 -17q-24 0 -40.5 16.5t-16.5 39.5q0 24 16.5 40.5t39.5 16.5t40 -16.5t17 -39.5z" />
    <glyph glyph-name="Gcommaaccent.ss01" horiz-adv-x="641" 
d="M580 277q0 -71 -14.5 -118t-48.5 -83q-77 -82 -194 -82q-112 0 -184 72q-48 49 -60 106.5t-12 183.5t12 183.5t60 106.5q72 72 184 72q69 0 117 -22t98 -72l-73 -73q-38 38 -67.5 54.5t-74.5 16.5q-64 0 -106 -44q-26 -28 -34 -71.5t-8 -150.5t8 -150.5t34 -71.5
q42 -44 106 -44q71 0 114 51q35 39 35 113v39h-149v92h257v-108zM379 -133q0 -43 -30 -71t-78 -28v55q20 0 33 13t13 31t-13 31t-33 13v55q48 0 78 -28t30 -71z" />
    <glyph glyph-name="gcommaaccent.ss01" horiz-adv-x="549" 
d="M468 3q0 -95 -58.5 -154.5t-158.5 -59.5q-58 0 -98.5 15t-80.5 52l65 65q48 -45 110 -45q61 0 90 36.5t29 92.5v65q-49 -58 -131 -58q-76 0 -121 45q-34 34 -45.5 83t-11.5 123t11.5 123t45.5 83q44 44 122 44q83 0 133 -60v54h99v-504zM366 263q0 35 -3.5 59.5t-13.5 49
t-31.5 37.5t-54.5 13t-55 -13t-32 -37.5t-13.5 -49.5t-3.5 -59t3.5 -59t13.5 -49.5t32 -37.5t55 -13t54.5 13t31.5 37.5t13.5 49t3.5 59.5zM325 569q-48 0 -78 27.5t-30 70.5t30 71t78 28v-55q-20 0 -33 -13t-13 -31t13 -31t33 -13v-54z" />
    <glyph glyph-name="Iogonek.ss01" horiz-adv-x="294" 
d="M201 0h-108v712h108v-712zM198 -232q-48 0 -78 28t-30 71t30 71t78 28v-55q-20 0 -33 -13t-13 -31t13 -31t33 -13v-55z" />
    <glyph glyph-name="iogonek.ss01" horiz-adv-x="264" 
d="M183 0h-102v507h102v-507zM198 672q0 -27 -19.5 -46.5t-46.5 -19.5t-46.5 19.5t-19.5 46.5t19.5 46.5t46.5 19.5t46.5 -19.5t19.5 -46.5zM181 -229q-48 0 -78 28t-30 71t30 71t78 28v-55q-20 0 -33 -13t-13 -31t13 -31t33 -13v-55z" />
    <glyph glyph-name="Idotaccent.ss01" horiz-adv-x="294" 
d="M201 0h-108v712h108v-712zM204 840q0 -23 -17 -40t-40 -17t-40 17t-17 40t17 40t40 17t40 -17t17 -40z" />
    <glyph glyph-name="ij.ss01" horiz-adv-x="528" 
d="M183 0h-102v507h102v-507zM198 672q0 -27 -19.5 -46.5t-46.5 -19.5t-46.5 19.5t-19.5 46.5t19.5 46.5t46.5 19.5t46.5 -19.5t19.5 -46.5zM447 -67q0 -61 -35 -100.5t-104 -39.5h-63v87h45q30 0 42.5 14.5t12.5 44.5v568h102v-574zM462 672q0 -27 -19.5 -46.5t-46.5 -19.5
t-46.5 19.5t-19.5 46.5t19.5 46.5t46.5 19.5t46.5 -19.5t19.5 -46.5z" />
    <glyph glyph-name="Kcommaaccent.ss01" horiz-adv-x="658" 
d="M648 0h-127l-200 351l-120 -144v-207h-108v712h108v-358l291 358h132l-231 -279zM399 -133q0 -43 -30 -71t-78 -28v55q20 0 33 13t13 31t-13 31t-33 13v55q48 0 78 -28t30 -71z" />
    <glyph glyph-name="kcommaaccent.ss01" horiz-adv-x="548" 
d="M526 0h-126l-142 234l-75 -85v-149h-102v712h102v-439l197 234h124l-176 -199zM336 -133q0 -43 -30 -71t-78 -28v55q20 0 33 13t13 31t-13 31t-33 13v55q48 0 78 -28t30 -71z" />
    <glyph glyph-name="Lcommaaccent.ss01" horiz-adv-x="574" 
d="M544 0h-451v712h108v-615h343v-97zM378 -133q0 -43 -30 -71t-78 -28v55q20 0 33 13t13 31t-13 31t-33 13v55q48 0 78 -28t30 -71z" />
    <glyph glyph-name="lcommaaccent.ss01" horiz-adv-x="311" 
d="M280 0h-63q-69 0 -104 39.5t-35 100.5v572h102v-566q0 -30 12.5 -44.5t42.5 -14.5h45v-87zM240 -133q0 -43 -30 -71t-78 -28v55q20 0 33 13t13 31t-13 31t-33 13v55q48 0 78 -28t30 -71z" />
    <glyph glyph-name="Lcaron.ss01" horiz-adv-x="574" 
d="M544 0h-451v712h108v-615h343v-97zM414 590l-91 -76v198h91v-122z" />
    <glyph glyph-name="lcaron.ss01" horiz-adv-x="311" 
d="M280 0h-63q-69 0 -104 39.5t-35 100.5v572h102v-566q0 -30 12.5 -44.5t42.5 -14.5h45v-87zM364 612l-91 -76v198h91v-122z" />
    <glyph glyph-name="Ldot.ss01" horiz-adv-x="574" 
d="M544 0h-451v712h108v-615h343v-97zM486 359q0 -23 -17 -40t-40 -17t-40 17t-17 40t17 40t40 17t40 -17t17 -40z" />
    <glyph glyph-name="ldot.ss01" horiz-adv-x="340" 
d="M280 0h-63q-69 0 -104 39.5t-35 100.5v572h102v-566q0 -30 12.5 -44.5t42.5 -14.5h45v-87zM357 277q0 -23 -16.5 -40t-39.5 -17q-24 0 -40.5 16.5t-16.5 39.5q0 24 16.5 40.5t39.5 16.5t40 -16.5t17 -39.5z" />
    <glyph glyph-name="Ncommaaccent.ss01" horiz-adv-x="722" 
d="M629 0h-99l-329 501v-501h-108v712h99l329 -500v500h108v-712zM408 -133q0 -43 -30 -71t-78 -28v55q20 0 33 13t13 31t-13 31t-33 13v55q48 0 78 -28t30 -71z" />
    <glyph glyph-name="ncommaaccent.ss01" horiz-adv-x="568" 
d="M492 0h-102v309q0 57 -28 85t-74 28t-75.5 -28.5t-29.5 -84.5v-309h-102v507h100v-51q52 57 135 57q77 0 125 -46q51 -50 51 -143v-324zM352 -133q0 -43 -30 -71t-78 -28v55q20 0 33 13t13 31t-13 31t-33 13v55q48 0 78 -28t30 -71z" />
    <glyph glyph-name="Rcommaaccent.ss01" horiz-adv-x="655" 
d="M612 0h-126l-150 300h-135v-300h-108v712h276q100 0 160.5 -58t60.5 -150q0 -73 -39.5 -122.5t-102.5 -66.5zM482 503q0 52 -33 82t-88 30h-160v-223h160q55 0 88 29.5t33 81.5zM378 -133q0 -43 -30 -71t-78 -28v55q20 0 33 13t13 31t-13 31t-33 13v55q48 0 78 -28
t30 -71z" />
    <glyph glyph-name="rcommaaccent.ss01" horiz-adv-x="439" 
d="M437 465l-77 -77q-34 34 -76 34q-43 0 -72 -31.5t-29 -82.5v-308h-102v507h100v-55q20 27 56.5 44t78.5 17q73 0 121 -48zM200 -133q0 -43 -30 -71t-78 -28v55q20 0 33 13t13 31t-13 31t-33 13v55q48 0 78 -28t30 -71z" />
    </font>
</defs>
</svg>
